<?xml version="1.0" standalone="no"?>
<!DOCTYPE svg PUBLIC "-//W3C//DTD SVG 1.1//EN" "http://www.w3.org/Graphics/SVG/1.1/DTD/svg11.dtd" >
<svg xmlns="http://www.w3.org/2000/svg">
<defs>
  <font id="jupiterx" horiz-adv-x="1666.6666666666667">
    <font-face font-family="jupiterx"
      units-per-em="1000" ascent="1000"
      descent="0" />
    <missing-glyph horiz-adv-x="0" />
    <glyph glyph-name="creative-market"
      unicode="&#xEA01;"
      horiz-adv-x="1000" d="M308.59375 316.40625H298.8125C298.8125 316.40625 296.84375 316.40625 296.84375 316.40625L277.3125 285.15625C277.3125 283.1875 277.3125 283.1875 275.34375 285.15625L255.8125 316.40625C255.8125 316.40625 253.8437499999999 316.40625 253.8437499999999 316.40625H244.0625C242.09375 316.40625 242.09375 316.40625 242.09375 316.40625V251.9375C242.09375 249.9687500000001 244.0625 249.9687500000001 244.0625 249.9687500000001H253.8437499999999C255.8125 249.9687500000001 255.8125 251.9375 255.8125 251.9375V285.15625C255.8125 285.15625 257.78125 287.125 259.71875 285.15625L273.40625 261.71875C275.375 261.71875 277.3125 261.71875 277.3125 261.71875L291 285.15625C292.96875 287.125 292.96875 285.15625 292.96875 285.15625V251.9375C292.96875 249.9687500000001 294.9375 249.9687500000001 294.9375 249.9687500000001H306.65625C308.6250000000001 249.9687500000001 308.6250000000001 251.9375 308.6250000000001 251.9375V316.40625C312.5312500000001 316.40625 310.5937500000001 316.40625 308.6250000000001 316.40625zM388.6875 316.40625C388.6875 316.40625 386.71875 316.40625 386.71875 316.40625H376.9375C374.96875 316.40625 374.96875 316.40625 374.96875 316.40625L347.625 251.9375C347.625 249.9687500000001 347.625 248.03125 347.625 248.03125H359.34375C361.3125 248.03125 361.3125 248.03125 361.3125 250L365.21875 261.71875C365.21875 261.71875 367.1875 261.71875 367.1875 261.71875H394.53125C396.5 261.71875 396.5 261.71875 396.5 261.71875L402.3750000000001 250C402.3750000000001 248.03125 402.3750000000001 248.03125 402.3750000000001 248.03125H414.0937500000001C416.0625000000001 248.03125 418.0000000000001 250 416.0625000000001 251.9375zM388.6875 275.375H375C373.03125 275.375 371.09375 277.34375 373.03125 277.34375L380.84375 296.875C380.84375 298.84375 384.75 298.84375 386.71875 296.875L394.53125 277.34375C392.5625 277.34375 390.625 275.375 388.65625 275.375zM584 285.15625C584 287.125 584 287.125 584 289.0625L605.4999999999999 314.46875C605.4999999999999 316.4374999999999 605.4999999999999 316.4374999999999 603.53125 316.4374999999999H591.8125C591.8125 316.4374999999999 589.84375 316.4374999999999 589.84375 316.4374999999999L566.40625 287.125C566.40625 285.15625 564.4375 287.125 564.4375 289.0937499999999V316.4374999999999C564.4375 316.4374999999999 562.4687500000001 316.4374999999999 562.4687500000001 316.4374999999999H552.6875000000001C550.7187500000001 316.4374999999999 550.7187500000001 316.4374999999999 550.7187500000001 316.4374999999999V251.96875C550.7187500000001 250 552.6875000000001 250 552.6875000000001 250H562.4687500000001C564.4375 250 564.4375 251.96875 564.4375 251.96875V261.7499999999999C564.4375 261.7499999999999 564.4375 263.7187499999999 564.4375 263.7187499999999L572.25 275.4374999999999C574.21875 277.4062499999999 574.21875 277.4062499999999 574.21875 275.4374999999999L591.8125 251.9999999999999C591.8125 251.9999999999999 593.7812499999999 250.0312499999999 593.7812499999999 250.0312499999999H605.4999999999999C607.4687499999999 250.0312499999999 609.4062499999999 251.9999999999999 607.4687499999999 253.9374999999999zM693.375 261.71875H662.125C660.15625 261.71875 660.15625 263.6875 660.15625 265.625V275.40625C660.15625 277.3749999999999 660.15625 277.3749999999999 662.125 277.3749999999999H683.6249999999999C685.5937499999999 277.3749999999999 687.5312499999999 279.3437499999999 687.5312499999999 281.2812499999999V289.0937499999999C687.5312499999999 291.0624999999999 685.5625 292.9999999999999 683.6249999999999 292.9999999999999H662.125C660.15625 292.9999999999999 660.15625 292.9999999999999 660.15625 294.9687499999999V304.7499999999999C660.15625 306.7187499999998 660.15625 308.6562499999999 662.125 308.6562499999999H691.4374999999999C693.4062499999999 308.6562499999999 695.3437499999999 308.6562499999999 695.3437499999999 310.6249999999998V318.4374999999998C695.3437499999999 320.4062499999998 693.375 322.3437499999998 691.4374999999999 322.3437499999998H648.4687499999999C646.5 322.3437499999998 644.5624999999999 320.3749999999999 644.5624999999999 318.4374999999998V255.9374999999998C644.5624999999999 253.9687499999999 646.5312499999999 253.9687499999999 648.4687499999999 253.9687499999999H695.3437499999999C697.3124999999999 253.9687499999999 699.2499999999999 253.9687499999999 699.2499999999999 255.9374999999998V263.7499999999998C695.3437499999999 261.7812499999999 695.3437499999999 261.7812499999999 693.375 261.7812499999999zM785.15625 316.40625H730.46875C728.5 316.40625 728.5 316.40625 728.5 316.40625V306.625C728.5 304.6562500000001 730.46875 304.6562500000001 730.46875 304.6562500000001H746.09375C748.0625 304.6562500000001 748.0625 302.6875000000001 748.0625 302.6875000000001V253.8437500000001C748.0625 251.8750000000003 750.0312499999999 251.8750000000003 750.0312499999999 251.8750000000003H761.7499999999999C761.7499999999999 251.8750000000003 761.7499999999999 253.8437500000001 761.7499999999999 253.8437500000001V302.6875000000001C761.7499999999999 304.6562500000001 763.7187499999999 304.6562500000001 763.7187499999999 304.6562500000001H781.3124999999999C783.2812499999998 304.6562500000001 783.2812499999998 306.625 783.2812499999998 306.625V316.40625C785.2499999999998 316.40625 785.2499999999998 316.40625 785.2499999999998 316.40625zM509.7812499999999 291C509.7812499999999 304.6875 498.0624999999999 316.40625 478.5312499999999 316.40625C472.6562499999999 316.40625 464.8437499999999 316.40625 457.0312499999999 316.40625C455.0624999999999 316.40625 455.0624999999999 314.4375 455.0624999999999 314.4375V249.9687500000001C455.0624999999999 248.0000000000001 457.0312499999999 248.0000000000001 457.0312499999999 248.0000000000001H466.8124999999999C468.78125 248.0000000000001 468.78125 249.9687500000001 468.78125 249.9687500000001V263.65625C468.78125 265.625 468.78125 265.625 470.75 265.625S476.625 265.625 478.5625 265.625C478.5625 265.625 480.53125 265.625 480.53125 265.625C482.5000000000001 265.625 482.5000000000001 265.625 482.5000000000001 263.65625L490.3125000000001 248.03125C490.3125000000001 248.03125 492.2812500000001 246.0625000000001 492.2812500000001 246.0625000000001H504C504 246.0625000000001 505.9687499999999 248.03125 504 249.9687500000001L496.1875 267.5625C496.1875 269.53125 496.1875 269.53125 496.1875 269.53125C504 277.34375 509.8749999999999 283.21875 509.8749999999999 291.03125zM480.46875 279.28125C476.5625 279.28125 474.59375 279.28125 472.65625 279.28125S470.6875 281.25 470.6875 281.25V300.78125C470.6875 302.75 472.65625 302.75 472.65625 302.75C474.625 302.75 476.5625 302.75 480.46875 302.75C488.28125 302.75 496.09375 298.84375 496.09375 291.03125C494.125 285.15625 488.28125 279.3125 480.46875 279.3125zM988.28125 449.21875C986.3125 449.21875 978.5 398.4375 941.40625 398.4375C927.71875 398.4375 917.96875 410.15625 912.09375 421.875C957.03125 431.65625 972.65625 466.8125 972.65625 490.2499999999999C972.65625 519.5625 951.15625 529.3125 933.59375 529.3125C906.25 529.3125 871.09375 503.9062499999999 871.09375 453.125C871.09375 449.21875 871.09375 443.34375 871.09375 441.40625C861.3125 443.375 853.5 449.21875 847.65625 457.03125C855.46875 496.09375 853.53125 531.25 835.9375 531.25C826.15625 531.25 816.40625 519.53125 816.40625 490.2187500000001C816.40625 480.4375000000001 820.3125 466.78125 826.1875 457.0000000000001C824.21875 439.4062500000001 810.5625 398.4062500000001 794.9375 398.4062500000001C773.4375 398.4062500000001 781.25 499.9687500000001 781.25 515.59375C781.25 527.3125 751.9375 541.0000000000001 746.09375 535.125C742.1875 531.21875 742.1875 515.59375 742.1875 494.0937500000001C742.1875 476.5000000000001 744.15625 455.0312500000001 746.09375 435.5000000000001C746.09375 425.7187500000001 736.3125 398.3750000000001 720.6875 398.3750000000001C695.2812500000001 398.3750000000001 707.0000000000001 496.0312500000002 707.0000000000001 509.7187500000002C707.0000000000001 519.5000000000002 679.6562500000001 531.2187500000002 671.8437500000001 523.4062500000002C667.9375000000001 519.5000000000002 667.9375000000001 501.9062500000002 667.9375000000001 470.6562500000002C667.9375000000001 456.9687500000002 667.9375000000001 443.3125000000003 669.90625 431.5937500000003C667.9375000000001 417.9062500000003 658.1875 396.4375000000003 640.5937500000001 396.4375000000003C613.2500000000001 396.4375000000003 624.9687500000001 501.9062500000002 632.7812500000001 566.3750000000002C636.6875000000001 568.3437500000002 642.5625 568.3437500000002 646.46875 568.3437500000002C660.15625 570.3125000000002 673.8125 572.2500000000002 673.8125 566.3750000000002C673.8125 548.7812500000002 683.59375 542.9375000000002 693.34375 542.9375000000002S710.9375 550.7500000000002 710.9375 566.3750000000002C710.9375 580.0625000000002 699.21875 591.7812500000002 677.71875 591.7812500000002C664.0312500000001 591.7812500000002 650.375 589.8125000000002 636.6875000000001 587.8750000000002C636.6875000000001 597.6562500000002 636.6875000000001 605.4687500000002 636.6875000000001 613.2812500000002C636.6875000000001 626.9687500000002 607.3750000000001 640.6250000000002 601.5312500000001 634.7812500000002C599.5625000000001 632.8125000000002 597.6250000000001 611.3437500000002 593.7187500000001 580.0937500000002C574.1875000000001 574.2187500000002 552.6875000000001 572.2812500000002 533.1562500000001 572.2812500000002C527.2812500000001 572.2812500000002 527.2812500000001 550.7812500000002 550.7500000000001 550.7812500000002C564.4375 550.7812500000002 576.15625 552.7500000000002 589.8125000000001 556.6562500000002C589.8125000000001 535.1562500000002 587.8437500000001 509.7812500000002 587.8437500000001 486.3437500000003C587.8437500000001 464.8437500000003 589.8125000000001 447.2812500000004 589.8125000000001 431.6562500000004C587.8437500000001 419.9375000000004 580.0312500000001 394.5312500000004 564.4062500000001 394.5312500000004C535.0937500000001 394.5312500000004 548.7812500000001 498.0625000000003 548.7812500000001 513.6875000000003C548.7812500000001 521.5000000000003 521.4375000000001 537.1250000000003 515.5625000000001 531.2812500000005C513.5937500000002 529.3125000000003 513.5937500000002 527.3750000000005 513.5937500000002 527.3750000000005S511.6250000000002 529.3437500000005 499.9062500000002 529.3437500000005C462.7812500000002 529.3437500000005 431.5312500000002 482.4687500000005 431.5312500000002 439.5000000000005C431.5312500000002 437.5312500000005 431.5312500000002 433.6250000000005 431.5312500000002 433.6250000000005C425.6562500000001 418.0000000000005 410.0312500000001 394.5625000000005 382.6875000000001 394.5625000000005C369.0000000000001 394.5625000000005 359.2500000000001 404.3437500000005 353.3750000000001 416.0625000000005C394.4062500000001 427.7812500000005 410.0312500000001 464.9062500000005 410.0312500000001 488.3437500000004C410.0312500000001 515.6875000000005 386.5937500000001 527.4062500000005 370.9687500000001 527.4062500000005C339.7187500000001 527.4062500000005 308.4687500000001 498.0937500000005 308.4687500000001 449.2812500000005C308.4687500000001 433.6562500000005 310.4375000000002 421.9375000000005 316.2812500000001 410.2187500000005C310.4062500000001 402.4062500000005 300.6562500000001 394.5937500000005 290.8750000000001 394.5937500000005C259.6250000000001 394.5937500000005 281.0937500000001 496.1562500000004 281.0937500000001 507.8750000000004C281.0937500000001 511.7812500000004 281.0937500000001 515.6875000000005 277.1875000000001 519.5937500000005C269.3750000000001 523.5000000000005 232.2500000000001 527.4062500000005 220.5312500000001 531.3125000000005C220.5312500000001 535.2187500000005 220.5312500000001 535.2187500000005 220.5312500000001 539.1250000000005C220.5312500000001 558.6562500000005 206.8437500000001 564.5312500000005 199.0312500000001 564.5312500000005C185.3437500000001 564.5312500000005 183.4062500000001 548.9062500000005 183.4062500000001 545.0000000000005C183.4062500000001 543.0312500000005 183.4062500000001 527.4062500000005 197.0937500000001 519.5937500000005C197.0937500000001 482.4687500000005 173.6562500000001 394.5937500000005 109.1875000000001 394.5937500000005C60.3437500000001 394.5937500000005 42.7812500000001 445.3750000000005 42.7812500000001 480.5312500000005C42.7812500000001 543.0312500000005 79.9062500000001 589.9062500000005 103.3437500000001 589.9062500000005C132.6562500000001 589.9062500000005 105.3125000000001 535.2187500000005 136.5625000000001 535.2187500000005C156.0937500000001 535.2187500000005 160.0000000000001 554.7500000000005 160.0000000000001 564.5312500000005C160.0000000000001 582.1250000000005 140.4687500000001 613.3750000000005 103.3437500000001 613.3750000000005C42.7812500000001 613.3750000000005 -4.0937499999999 539.1562500000005 -4.0937499999999 474.6875000000005C-4.0937499999999 414.1250000000006 38.8750000000001 363.3437500000006 97.4687500000001 363.3437500000006C191.2187500000001 363.3437500000006 212.7187500000001 461.0000000000006 216.6250000000001 515.6875000000005C222.5000000000001 513.7187500000005 238.1250000000001 511.7812500000005 238.1250000000001 509.8125000000005C242.0312500000001 505.9062500000005 234.2187500000001 472.6875000000005 234.2187500000001 441.4375000000005C234.2187500000001 402.3750000000005 245.9375000000001 371.1250000000005 277.1875000000001 371.1250000000005C298.6875000000001 371.1250000000005 314.3125000000001 384.8125000000005 322.1250000000001 394.5625000000005C333.8437500000001 378.9375000000005 353.3750000000001 371.1250000000005 370.9687500000001 371.1250000000005C402.2187500000001 371.1250000000005 421.7500000000001 388.7187500000005 431.5312500000002 404.3437500000005C441.3125000000002 380.9062500000005 456.9375000000002 371.1250000000005 472.5625000000002 371.1250000000005C496.0000000000002 371.1250000000005 509.6875000000002 400.4375000000005 509.6875000000002 404.3437500000005C515.5625000000001 384.8125000000005 531.1875000000001 369.1875000000005 550.7187500000001 369.1875000000005C572.2187500000001 369.1875000000005 585.8750000000001 388.7187500000005 591.7500000000001 402.4062500000005C599.5625000000001 378.9687500000005 613.2500000000001 369.1875000000005 630.8125000000001 369.1875000000005C652.3125000000001 369.1875000000005 665.9687500000001 386.7812500000005 671.8437500000001 400.4375000000005C677.71875 380.9062500000005 689.4375 369.1875000000005 707.0000000000001 369.1875000000005C730.4375000000001 369.1875000000005 744.125 392.6250000000005 748.03125 404.3437500000005C755.84375 384.8125000000005 769.53125 369.1875000000005 785.15625 369.1875000000005C806.65625 369.1875000000005 824.21875 398.5000000000005 835.9375 431.6875000000005C845.71875 423.8750000000005 855.46875 418.0000000000005 871.09375 416.0625000000005C880.875 386.7500000000005 904.3125 369.1875000000005 931.65625 369.1875000000005C976.5937499999998 369.1875000000005 994.15625 414.1250000000005 996.1249999999998 425.8437500000005C1002 441.4687500000005 990.25 453.1875000000005 988.3124999999998 449.2812500000005zM371.09375 513.65625C388.6875 513.65625 378.90625 441.375 347.65625 431.6249999999999C343.75 439.4374999999999 343.75 447.2499999999999 343.75 453.1249999999999C343.75 476.5624999999999 353.53125 513.6874999999999 371.09375 513.6874999999999zM482.4375 402.34375C449.21875 402.34375 472.65625 513.6875 500.0312500000001 513.6875C517.625 513.6875 513.71875 402.34375 482.4375 402.34375zM929.6875 513.65625C949.21875 513.65625 937.5 441.375 906.25 435.5312499999999C904.28125 441.4062499999999 904.28125 449.2187499999999 904.28125 453.1249999999999C904.28125 476.5624999999999 912.09375 513.6874999999999 929.6875 513.6874999999999z" />
    <glyph glyph-name="long-arrow"
      unicode="&#xEA02;"
      horiz-adv-x="1000" d="M994.15625 474.59375C1000.0312499999998 488.28125 1000.0312499999998 505.8437500000001 994.15625 525.375C988.28125 531.25 988.28125 537.09375 980.46875 542.96875L730.46875 792.96875C707.03125 818.375 667.96875 818.375 644.53125 792.96875C619.125 769.53125 619.125 730.46875 644.53125 707.03125L787.125 562.5H62.5C25.375 562.5 0 537.09375 0 500.0000000000001S25.40625 437.5 62.5 437.5H787.125L644.53125 292.96875C619.125 269.53125 619.125 230.46875 644.53125 207.03125C656.25 193.34375 667.96875 187.5 687.5 187.5S718.75 193.375 730.46875 207.03125L980.46875 457.03125C988.28125 462.90625 994.15625 468.75 994.15625 474.625z" />
    <glyph glyph-name="pro-badge"
      unicode="&#xEA03;"
      horiz-adv-x="1666.6666666666667" d="M222.2222222222222 1000H1444.4444444444446A222.22222222222223 222.22222222222223 0 0 0 1666.6666666666667 777.7777777777778V222.2222222222222A222.22222222222223 222.22222222222223 0 0 0 1444.4444444444446 0H222.2222222222222A222.22222222222223 222.22222222222223 0 0 0 0 222.2222222222222V777.7777777777778A222.22222222222223 222.22222222222223 0 0 0 222.2222222222222 1000zM327.5555555555556 503.4444444444444V649H430.8888888888889A97.05555555555557 97.05555555555557 0 0 0 496.7222222222223 630.3888888888889A68.83333333333334 68.83333333333334 0 0 0 517.5555555555557 576.2222222222222A69.72222222222221 69.72222222222221 0 0 0 496.7222222222223 521.7777777777777A94.44444444444443 94.44444444444443 0 0 0 430.8888888888889 503.4444444444444zM274.7777777777778 693.4444444444443V296.7777777777777H327.5555555555556V458.9999999999999H448.6666666666667A120.83333333333331 120.83333333333331 0 0 1 539.5 489.5555555555555A117.77777777777779 117.77777777777779 0 0 1 570.3333333333334 576.2222222222222A116.66666666666667 116.66666666666667 0 0 1 539.5 662.6111111111111A123.16666666666667 123.16666666666667 0 0 1 448.6666666666667 693.4444444444443zM634.7777777777778 693.4444444444443V296.7777777777777H687.5555555555555V466.2222222222222H816.4444444444445A70.05555555555554 70.05555555555554 0 0 0 847.5555555555555 460.3888888888888A52.11111111111111 52.11111111111111 0 0 0 866.4444444444445 444.8333333333333A64.50000000000001 64.50000000000001 0 0 0 877 422.0555555555556Q880.3333333333334 409 882.5555555555555 394.2777777777777A193.61111111111111 193.61111111111111 0 0 0 885.8888888888889 364.8333333333334L887 336.7777777777777A171.2222222222222 171.2222222222222 0 0 1 889.5 313.4444444444444A33.333333333333336 33.333333333333336 0 0 1 897.0000000000001 296.7777777777777H955.888888888889A67.83333333333333 67.83333333333333 0 0 0 943.3888888888888 319.8333333333332A180.72222222222226 180.72222222222226 0 0 0 937 347.3333333333332A255.55555555555551 255.55555555555551 0 0 0 934.2222222222222 376.7777777777776Q933.6666666666666 391.7777777777775 932.5555555555554 406.222222222222A255.55555555555551 255.55555555555551 0 0 1 927.8333333333331 433.9999999999998A84.33333333333334 84.33333333333334 0 0 1 918.3888888888886 457.8888888888886A61.111111111111114 61.111111111111114 0 0 1 901.1666666666666 476.4999999999998A70.66666666666667 70.66666666666667 0 0 1 873.3888888888887 487.6111111111109V488.7222222222219A84.3888888888889 84.3888888888889 0 0 1 925.8888888888886 525.9444444444441A120.38888888888887 120.38888888888887 0 0 1 942.5555555555554 589.2777777777775A95.61111111111111 95.61111111111111 0 0 1 910.0555555555554 665.6666666666663A130.61111111111111 130.61111111111111 0 0 1 821.4444444444442 693.4444444444441zM797.5555555555555 510.6666666666667H687.5555555555555V649H818.6666666666666A68.50000000000001 68.50000000000001 0 0 0 872.5555555555555 630.1111111111111A71.16666666666666 71.16666666666666 0 0 0 889.2222222222223 581.2222222222222A72.77777777777779 72.77777777777779 0 0 0 881.7222222222223 545.9444444444445A59.333333333333336 59.333333333333336 0 0 0 861.7222222222223 524.2777777777777A76.38888888888889 76.38888888888889 0 0 0 832.5555555555557 513.1666666666667A212.72222222222223 212.72222222222223 0 0 0 797.5555555555555 510.6666666666667zM1045.888888888889 495.1111111111111A228.66666666666666 228.66666666666666 0 0 0 1053.6666666666667 554.2777777777778A160.66666666666666 160.66666666666666 0 0 0 1078.1111111111113 606.7777777777778A124.94444444444444 124.94444444444444 0 0 0 1120.8888888888891 644.2777777777778A128.66666666666666 128.66666666666666 0 0 0 1183.1111111111113 658.4444444444445A128.66666666666666 128.66666666666666 0 0 0 1245.3333333333335 644.2777777777778A124.94444444444444 124.94444444444444 0 0 0 1288.1111111111113 606.7777777777778A160.66666666666666 160.66666666666666 0 0 0 1312.5555555555559 554.2777777777778A228.66666666666666 228.66666666666666 0 0 0 1320.3333333333337 495.1111111111111A228.66666666666666 228.66666666666666 0 0 0 1312.5555555555559 435.6666666666667A160.66666666666666 160.66666666666666 0 0 0 1288.1111111111113 383.1666666666667A124.94444444444444 124.94444444444444 0 0 0 1245.3333333333335 345.6666666666667A128.66666666666666 128.66666666666666 0 0 0 1183.1111111111113 331.4999999999999A128.66666666666666 128.66666666666666 0 0 0 1120.8888888888891 345.6666666666667A124.94444444444444 124.94444444444444 0 0 0 1078.1111111111113 383.1666666666667A160.66666666666666 160.66666666666666 0 0 0 1053.6666666666667 435.6666666666667A228.66666666666666 228.66666666666666 0 0 0 1045.888888888889 495.1111111111111zM993.1111111111112 495.1111111111111A255.55555555555551 255.55555555555551 0 0 1 1005.0555555555557 417.3333333333334A196.66666666666666 196.66666666666666 0 0 1 1040.6111111111113 350.6666666666668A172.22222222222223 172.22222222222223 0 0 1 1100.0555555555557 304.8333333333334A190.44444444444449 190.44444444444449 0 0 1 1183.1111111111113 287.8888888888891A190.44444444444449 190.44444444444449 0 0 1 1265.888888888889 304.8333333333334A172.22222222222223 172.22222222222223 0 0 1 1325.3333333333335 350.6666666666668A196.66666666666666 196.66666666666666 0 0 1 1361.1666666666667 417.0555555555557A255.55555555555551 255.55555555555551 0 0 1 1373.1111111111113 494.8333333333334A255.55555555555551 255.55555555555551 0 0 1 1361.1666666666667 572.6111111111112A196.66666666666666 196.66666666666666 0 0 1 1325.3333333333335 639.2777777777778A174.8888888888889 174.8888888888889 0 0 1 1265.888888888889 685.6666666666667A187.83333333333331 187.83333333333331 0 0 1 1183.1111111111113 702.8888888888889A187.83333333333331 187.83333333333331 0 0 1 1100.3333333333337 685.6666666666667A174.8888888888889 174.8888888888889 0 0 1 1040.8888888888891 639.5555555555557A196.66666666666666 196.66666666666666 0 0 1 1005.0555555555558 572.8888888888889A255.55555555555551 255.55555555555551 0 0 1 993.1111111111114 495.1111111111113z" />
    <glyph glyph-name="search-1"
      unicode="&#xEA04;"
      horiz-adv-x="1000" d="M693.375 574.21875C693.375 650.40625 667.96875 712.90625 613.28125 761.71875C562.5 818.375 500 843.75 425.78125 843.75C349.59375 843.75 287.0937500000001 818.34375 238.28125 761.71875C187.5 707.03125 156.25 644.53125 156.25 574.21875C156.25 505.84375 181.65625 437.5 238.28125 386.71875C292.96875 337.875 355.46875 306.625 425.78125 306.625C494.15625 306.625 562.5 332.03125 613.28125 386.71875C667.96875 437.5 693.375 500 693.375 574.21875zM1000 74.21875C1000 56.625 994.125 37.09375 974.59375 19.53125C962.875 5.84375 943.34375 -5.8750000000001 917.9375000000002 -5.8750000000001C900.3437500000001 -5.8750000000001 880.8125000000001 0 863.2500000000001 19.5312499999999L656.2187500000001 224.6249999999999C587.8437500000001 175.7812499999999 505.8125000000001 150.4062499999999 417.9375000000001 150.4062499999999C363.2500000000001 150.4062499999999 306.5937500000001 162.1249999999999 255.8125000000001 181.6562499999999C206.9687500000001 199.2499999999998 162.0625000000001 238.3124999999998 124.9375000000001 275.4062499999999S56.5625000000001 355.4999999999998 37.0312500000001 412.1249999999999C19.4375000000001 468.7812499999998 -0.0937499999999 519.5624999999999 -0.0937499999999 574.2499999999998C-0.0937499999999 630.9062499999998 11.6250000000001 687.5312499999998 31.1562500000001 744.1874999999998S87.8125000000001 837.9374999999998 124.9062500000001 875.0624999999998C162.0312500000001 912.1874999999998 206.9375000000001 943.4374999999998 261.6250000000001 962.9687499999998C318.2812500000001 980.5624999999998 369.0625000000001 1000.0937499999998 425.6875000000001 1000.0937499999998C480.3750000000001 1000.0937499999998 537.0312500000001 988.3749999999998 587.8125000000001 968.8437499999998C636.65625 949.3124999999998 687.4375 912.1874999999998 724.5312500000001 875.0937499999998S792.90625 793.0624999999998 812.4375 738.3749999999998C831.96875 681.7187499999998 843.6875 630.9374999999998 843.6875 574.3124999999998C843.6875 488.3749999999998 818.2812500000001 406.3437499999998 769.46875 337.9687499999998L974.5625 130.9374999999998C994.09375 119.2187499999998 999.96875 99.6874999999998 999.96875 74.2812499999999z" />
    <glyph glyph-name="search-2"
      unicode="&#xEA05;"
      horiz-adv-x="1000" d="M988.28125 56.625L707.03125 324.21875C769.53125 394.53125 806.65625 488.28125 806.65625 593.75C812.5312499999999 818.375 630.875 1000 406.25 1000S-1e-13 818.34375 -1e-13 593.75C-1e-13 369.125 181.65625 187.5 406.25 187.5C505.8749999999999 187.5 593.75 224.625 662.125 281.25L943.375 5.8437499999999C949.2499999999998 -0.0312500000001 957.0624999999998 -0.0312500000001 962.90625 -0.0312500000001S980.4999999999998 5.8437499999998 988.3124999999998 11.6874999999999C1005.90625 25.3749999999998 1000.0312499999998 42.9374999999999 988.3124999999998 56.6249999999998zM62.5 593.75C62.5 781.25 218.75 937.5 406.25 937.5S750 781.25 750 593.75C750 406.25 593.75 250 406.25 250S62.5 406.25 62.5 593.75z" />
    <glyph glyph-name="search-3"
      unicode="&#xEA06;"
      horiz-adv-x="1000" d="M750 625C750 832.03125 582.03125 1000 375 1000S0 832.03125 0 625C0 417.96875 167.96875 250 375 250S750 417.96875 750 625zM375 312.5C199.21875 312.5 62.5 449.21875 62.5 625S199.21875 937.5 375 937.5C550.78125 937.5 687.5 800.78125 687.5 625S550.78125 312.5 375 312.5zM974.625 162.09375L744.15625 394.53125C712.90625 337.875 662.125 292.96875 613.28125 261.71875L843.75 31.25C863.28125 11.71875 886.71875 5.84375 912.125 5.84375S962.90625 11.71875 980.4999999999998 31.25C1005.90625 62.5 1005.90625 125 974.625 162.125zM156.25 593.75H218.75C218.75 699.21875 300.78125 781.25 406.25 781.25V843.75C269.53125 843.75 156.25 730.46875 156.25 593.75z" />
    <glyph glyph-name="search-4"
      unicode="&#xEA07;"
      horiz-adv-x="1000" d="M962.90625 212.875L712.90625 462.875C738.3124999999999 511.7187500000001 750.0312499999999 568.34375 750.0312499999999 625C750.0312499999999 832.03125 582.0624999999999 1000 375.03125 1000S0.0312499999999 832.03125 0.0312499999999 625C0.0312499999999 417.96875 167.9999999999999 250 375.03125 250C431.6875 250 488.3124999999999 261.71875 537.1562499999999 287.125L787.1562499999999 37.125C812.5624999999999 11.71875 843.8124999999999 0 875.0624999999999 0S937.5624999999998 11.71875 962.9687499999998 37.125C988.3749999999998 62.5312499999999 1000.0937499999998 93.7812499999999 1000.0937499999998 125.0312499999999S988.3749999999998 187.5312499999999 962.9687499999998 212.9374999999999zM62.5 625C62.5 800.78125 199.21875 937.5 375 937.5S687.5 800.78125 687.5 625C687.5 449.21875 550.78125 312.5 375 312.5S62.5 449.21875 62.5 625zM917.96875 82.03125C906.25 68.34375 894.53125 62.5 875 62.5S843.75 68.375 832.03125 82.03125L593.75 318.375C625 343.7812499999999 656.25 375.0312499999999 681.65625 406.2812499999999L917.9999999999998 167.9999999999999C943.4062499999998 144.5624999999999 943.4062499999998 105.4999999999999 917.9999999999998 82.0624999999999z" />
    <glyph glyph-name="share-email"
      unicode="&#xEA08;"
      horiz-adv-x="1000" d="M634.78125 494.1250000000001L1000.0312499999998 244.125V820.3125zM0 820.3125V240.21875L365.25 490.2187500000001zM500 369.125L414.0625 449.21875L0 199.21875H1000L585.9375 449.21875zM970.71875 824.21875H29.3125L500.0312499999999 470.6874999999999z" />
    <glyph glyph-name="shopping-cart-1"
      unicode="&#xEA09;"
      horiz-adv-x="1000" d="M386.71875 167.96875C386.71875 150.375 380.84375 130.84375 363.28125 113.28125C349.59375 99.59375 332.03125 87.875 306.625 87.875C287.09375 87.875 269.5 93.75 249.96875 113.28125C238.25 125 224.5625 144.53125 224.5625 167.96875C224.5625 187.5 230.4375 207.03125 249.96875 224.625C269.5 244.15625 281.21875 250.0312499999999 306.625 250.0312499999999C324.21875 250.0312499999999 343.75 244.15625 363.28125 224.625C380.875 207.03125 386.71875 187.5 386.71875 167.96875zM925.78125 167.96875C925.78125 150.375 917.96875 130.84375 900.375 113.28125C886.6875000000001 99.59375 869.125 87.875 843.7187500000001 87.875C824.1875000000001 87.875 806.5937500000001 93.75 787.0625000000001 113.28125C775.3437500000001 125 761.6562500000001 144.53125 761.6562500000001 167.96875C761.6562500000001 187.5 769.4687500000001 207.03125 787.0625000000001 224.625C800.7500000000001 238.3124999999999 818.3125000000001 250.0312499999999 843.7187500000001 250.0312499999999C863.2500000000001 250.0312499999999 880.84375 244.15625 900.375 224.625C912.09375 207.03125 925.78125 187.5 925.78125 167.96875zM1000 824.21875V519.53125C1000 505.84375 994.125 500 988.28125 494.1250000000001C980.46875 488.2500000000001 974.59375 480.4375000000001 962.875 480.4375000000001L337.8750000000001 406.2187500000001C337.8750000000001 406.2187500000001 337.8750000000001 400.3437500000001 337.8750000000001 394.5000000000001C337.8750000000001 386.6875000000001 337.8750000000001 380.8125000000001 343.7500000000001 374.9687500000001C343.7500000000001 369.0937500000001 343.7500000000001 369.0937500000001 343.7500000000001 363.2500000000001C343.7500000000001 355.4375000000001 337.8750000000001 343.7187500000001 332.0312500000001 324.1875000000001H880.8750000000001C894.5625 324.1875000000001 900.4062500000001 318.3125000000001 906.28125 312.4687500000001S918 292.9375000000001 918 287.0625000000001C918 281.1875000000001 912.1250000000002 269.4687500000001 906.28125 261.6562500000001C900.4062500000001 255.7812500000003 886.75 249.9375000000001 880.8750000000001 249.9375000000001H269.5312500000001C255.8437500000001 249.9375000000001 250.0000000000001 255.8125000000001 244.1250000000001 261.6562500000001C238.2500000000002 269.4687500000001 230.4375000000002 281.1875000000001 230.4375000000002 287.0625000000001S230.4375000000002 300.7500000000001 238.2500000000002 312.4687500000001C244.1250000000001 318.34375 249.9687500000002 332.0000000000001 255.8437500000002 343.7187500000001S269.5312500000002 363.2500000000001 269.5312500000002 369.125L162.0937500000002 863.28125H37.0937500000002C25.3750000000002 863.28125 19.5000000000002 863.28125 11.6875000000001 875C5.8125000000001 886.71875 -0.0312499999999 886.71875 -0.0312499999999 900.40625C-0.0312499999999 912.125 5.8437500000001 918 11.6875000000001 925.8125C19.5000000000002 931.6875 25.3750000000002 937.53125 37.0937500000002 937.53125H193.3437500000002C199.2187500000002 937.53125 207.0312500000002 937.53125 212.8750000000002 931.65625C218.7500000000002 931.65625 218.7500000000002 925.78125 224.5937500000002 925.78125C224.5937500000002 917.96875 230.4687500000002 917.96875 230.4687500000002 912.09375S238.2812500000002 900.375 238.2812500000002 894.5C238.2812500000002 886.6875 238.2812500000002 880.8125 244.1562500000002 874.96875C244.1562500000002 869.09375 244.1562500000002 863.25 244.1562500000002 863.25H962.9062500000002C974.6250000000002 863.25 980.5 855.4375 988.3125 849.5625C994.1875 843.6875 1000.0312500000002 831.96875 1000.0312500000002 824.15625z" />
    <glyph glyph-name="shopping-cart-10"
      unicode="&#xEA0A;"
      horiz-adv-x="1000" d="M875 781.25C875 800 862.5 812.5 843.75 812.5H687.5C687.5 918.75 606.25 1000 500 1000S312.5 918.75 312.5 812.5H156.25C137.5 812.5 125 800 125 781.25L62.5 31.25C62.5 25 62.5 12.5 68.75 6.25C75 6.25 87.5 0 93.75 0H906.25C912.5 0 925 6.25 931.25 12.5C937.5 18.7499999999999 937.5 24.9999999999999 937.5 37.5L875 781.25zM500 937.5C568.75 937.5 625 881.25 625 812.5H375C375 881.25 431.25 937.5 500 937.5zM125 62.5L187.5 750H312.5V656.25C312.5 637.5 325 625 343.75 625S375 637.5 375 656.25V750H625V656.25C625 637.5 637.5 625 656.25 625S687.5 637.5 687.5 656.25V750H812.5L875 62.5H125z" />
    <glyph glyph-name="shopping-cart-2"
      unicode="&#xEA0B;"
      horiz-adv-x="1000" d="M917.96875 412.09375L1000 775.375C1005.8750000000002 800.78125 988.28125 824.21875 957.03125 824.21875H275.3750000000001L261.6875 906.25C255.8125 925.78125 238.2500000000001 937.5 218.71875 937.5H42.9375C19.5 937.5 -0.03125 917.96875 -0.03125 894.53125V869.125C-0.03125 843.71875 19.5 824.1875 42.9375 824.1875H162.09375L287.0937500000001 230.4375000000001C255.8437500000001 212.8437500000001 238.2500000000001 181.5937500000001 238.2500000000001 150.3437500000001C238.2500000000001 93.6875000000001 281.2187500000001 50.7187500000001 337.8750000000001 50.7187500000001S437.5000000000001 93.6875000000001 437.5000000000001 150.3437500000001C437.5000000000001 175.7500000000001 425.7812500000001 199.1875000000001 406.2500000000001 218.7187500000001H769.53125C750 199.1875000000001 738.28125 175.7500000000001 738.28125 150.3437500000001C738.28125 93.6875000000001 781.25 50.7187500000001 837.90625 50.7187500000001S937.5312499999998 93.6875000000001 937.5312499999998 150.3437500000001C937.5312499999998 187.4687500000001 912.125 218.7187500000001 880.875 238.2500000000001L894.5624999999999 281.2187500000001C900.4374999999999 306.625 880.875 332.0000000000001 849.625 332.0000000000001H380.875L369.15625 380.84375H875.0312499999999C894.5624999999999 380.84375 912.1562499999998 394.53125 917.9999999999998 412.09375z" />
    <glyph glyph-name="shopping-cart-3"
      unicode="&#xEA0C;"
      horiz-adv-x="1000" d="M994.15625 832.03125C988.28125 837.90625 980.46875 843.75 968.75 843.75H193.34375L175.7500000000001 943.375C167.9375000000001 957.0625 156.2187500000001 968.78125 144.5000000000001 968.78125H31.21875C11.6875 968.78125 -0.03125 957.0625 -0.03125 937.53125S11.6875 906.28125 31.21875 906.28125H119.1250000000001L255.8437500000001 306.6562500000001C255.8437500000001 292.9687500000001 269.5312500000001 281.2500000000001 287.0937500000001 281.2500000000001H843.75C863.28125 281.2500000000001 875 292.9687500000001 875 312.5000000000001S863.28125 343.7500000000001 843.75 343.7500000000001H312.5L292.96875 406.2500000000001H886.71875C900.40625 406.2500000000001 912.125 417.9687500000001 917.96875 431.6562500000001L1000 806.6562500000001C1000 812.53125 1000 824.25 994.125 832.0625zM863.28125 468.75H281.25L212.875 781.25H931.6249999999998zM417.96875 218.75C369.125 218.75 324.21875 175.78125 324.21875 125S369.15625 31.25 417.96875 31.25C468.75 31.25 511.71875 74.21875 511.71875 125S468.75 218.75 417.96875 218.75zM417.96875 93.75C400.375 93.75 386.71875 105.46875 386.71875 125S400.40625 156.25 417.96875 156.25C437.5 156.25 449.21875 144.53125 449.21875 125S437.5 93.75 417.96875 93.75zM724.625 218.75C675.78125 218.75 630.875 175.78125 630.875 125S675.8124999999999 31.25 724.625 31.25C775.40625 31.25 818.375 74.21875 818.375 125S781.25 218.75 724.625 218.75zM724.625 93.75C707.03125 93.75 693.375 105.46875 693.375 125S707.0624999999999 156.25 724.625 156.25C744.15625 156.25 755.875 144.53125 755.875 125S744.15625 93.75 724.625 93.75z" />
    <glyph glyph-name="shopping-cart-4"
      unicode="&#xEA0D;"
      horiz-adv-x="1000" d="M994.15625 863.28125C988.28125 869.15625 974.625 875 968.75 875H187.5L156.25 974.625C156.25 988.3125 144.53125 1000.03125 125 1000.03125H31.25C11.71875 1000.03125 0 988.3125 0 968.78125S11.71875 937.53125 31.25 937.53125H105.46875L250 400.4062500000001C250 394.5312500000001 255.8750000000001 386.7187500000001 269.53125 380.8750000000001C275.40625 380.8750000000001 275.40625 380.8750000000001 281.25 375.0000000000001H812.5C849.625 375.0000000000001 880.875 349.5937500000001 880.875 312.5000000000001S849.625 250.0000000000001 812.5 250.0000000000001H281.25C261.71875 250.0000000000001 250 238.2812500000001 250 218.7500000000001S261.71875 187.5000000000001 281.25 187.5000000000001H818.375C886.7499999999999 187.5000000000001 949.2499999999998 244.1562500000001 949.2499999999998 312.5000000000001C949.2499999999998 369.1562500000001 912.125 412.1250000000001 863.3124999999999 431.6562500000001L1000.0312499999998 837.9062500000001C1000.0312499999998 843.78125 1000.0312499999998 855.5 994.15625 863.3125zM792.96875 437.5H306.625L199.1875 812.5H917.9375zM312.5 93.75C312.5 42.96875 355.46875 0 406.25 0S500 42.96875 500 93.75C500 144.53125 457.03125 187.5 406.25 187.5S312.5 150.375 312.5 93.75zM406.25 125C425.78125 125 437.5 113.28125 437.5 93.75S425.78125 62.5 406.25 62.5C386.71875 62.5 375 82.03125 375 93.75S386.71875 125 406.25 125zM625 93.75C625 42.96875 667.96875 0 718.75 0S812.5 42.96875 812.5 93.75C812.5 144.53125 769.53125 187.5 718.75 187.5S625 150.375 625 93.75zM718.75 125C738.28125 125 750 113.28125 750 93.75S738.28125 62.5 718.75 62.5C699.21875 62.5 687.5 82.03125 687.5 93.75S699.21875 125 718.75 125zM406.25 687.5H718.75C738.28125 687.5 750 699.21875 750 718.75S738.28125 750 718.75 750H406.25C386.71875 750 375 738.28125 375 718.75S386.71875 687.5 406.25 687.5zM406.25 562.5H718.75C738.28125 562.5 750 574.21875 750 593.75S738.28125 625 718.75 625H406.25C386.71875 625 375 613.28125 375 593.75S386.71875 562.5 406.25 562.5z" />
    <glyph glyph-name="shopping-cart-5"
      unicode="&#xEA0E;"
      horiz-adv-x="1000" d="M500 125C500 72.25 458.96875 31.25 406.25 31.25S312.5 72.28125 312.5 125C312.5 177.75 353.53125 218.75 406.25 218.75S500 177.71875 500 125zM812.5 125C812.5 72.25 771.46875 31.25 718.75 31.25S625 72.28125 625 125C625 177.75 666.03125 218.75 718.75 218.75S812.5 177.71875 812.5 125zM968.75 718.75H224.59375L175.7500000000001 943.375C167.9375000000001 957.0625 156.2187500000001 968.78125 144.5000000000001 968.78125H31.21875C11.6875 968.78125 -0.03125 957.0625 -0.03125 937.53125S11.6875 906.28125 31.21875 906.28125H119.1250000000001L255.8437500000001 306.6562500000001C255.8437500000001 292.9687500000001 269.5312500000001 281.2500000000001 287.0937500000001 281.2500000000001H781.25C800.78125 281.2500000000001 812.5 292.9687500000001 812.5 312.5000000000001S800.78125 343.7500000000001 781.25 343.7500000000001H312.5L292.96875 406.2500000000001H843.75C863.28125 406.2500000000001 875 417.9687500000001 875 437.5000000000001S863.28125 468.7500000000001 843.75 468.7500000000001H281.25L269.53125 531.2500000000001H906.25C925.78125 531.2500000000001 937.5 542.9687500000001 937.5 562.5000000000001S925.78125 593.7500000000001 906.25 593.7500000000001H255.8437500000001C255.8437500000001 593.7500000000001 255.8437500000001 593.7500000000001 249.9687500000001 593.7500000000001L238.2500000000001 656.2500000000001H968.7187500000002C988.2500000000002 656.2500000000001 999.9687500000002 667.9687500000001 999.9687500000002 687.5000000000001S988.2500000000002 718.7500000000001 968.7187500000002 718.7500000000001z" />
    <glyph glyph-name="shopping-cart-6"
      unicode="&#xEA0F;"
      horiz-adv-x="1000" d="M994.15625 769.53125C988.28125 775.40625 974.625 781.25 968.75 781.25H230.46875L212.875 894.53125C207 937.5 167.9375 968.75 119.125 968.75H31.21875C11.6875 968.75 -0.03125 957.03125 -0.03125 937.5S11.6875 906.25 31.21875 906.25H119.125C130.84375 906.25 144.53125 894.53125 150.375 880.84375L238.28125 406.21875C250 337.84375 318.375 281.21875 386.71875 281.21875H781.25C855.46875 281.21875 917.96875 332 931.65625 406.21875L994.15625 744.125C1000.0312499999998 755.84375 1000.0312499999998 761.71875 994.15625 769.53125zM500 125C500 72.25 458.96875 31.25 406.25 31.25S312.5 72.28125 312.5 125C312.5 177.75 353.53125 218.75 406.25 218.75S500 177.71875 500 125zM875 125C875 72.25 833.96875 31.25 781.25 31.25S687.5 72.28125 687.5 125C687.5 177.75 728.53125 218.75 781.25 218.75S875 177.71875 875 125z" />
    <glyph glyph-name="shopping-cart-7"
      unicode="&#xEA10;"
      horiz-adv-x="1000" d="M937.5 562.5C957.03125 562.5 968.75 556.625 980.46875 542.96875C994.15625 531.25 1000 519.53125 1000 500S994.125 468.75 980.46875 457.03125C968.75 443.34375 957.03125 437.5 937.5 437.5H931.625L874.9687500000001 113.28125C874.9687500000001 99.59375 863.2500000000001 87.875 855.4375000000001 74.21875C849.5625000000001 62.5 824.1875000000001 62.5 812.4687500000001 62.5H187.4687500000001C175.7500000000001 62.5 156.2187500000001 68.375 150.3437500000001 74.21875C144.4687500000001 82.03125 130.8125000000001 99.625 124.9375000000001 113.28125L68.2812500000001 437.5H62.4062500000001C42.8750000000001 437.5 31.1562500000001 443.375 19.4375000000001 457.03125C5.7500000000001 468.75 -0.0937499999999 480.46875 -0.0937499999999 500S5.7812500000001 531.25 19.4375000000001 542.96875C31.1562500000001 556.65625 42.8750000000001 562.5 62.4062500000001 562.5zM238.28125 175.78125C244.15625 175.78125 250 181.65625 255.8750000000001 187.5S261.7500000000001 199.21875 261.7500000000001 212.90625L250.0312500000001 406.2812499999999C250.0312500000001 412.1562499999999 244.1562500000001 417.9999999999999 238.3125000000001 425.8124999999999C230.5000000000001 431.6874999999999 224.6250000000001 437.5312499999999 218.78125 437.5312499999999C207.0625 437.5312499999999 199.25 431.65625 193.3750000000001 425.8124999999999C187.5000000000001 417.9999999999999 187.5000000000001 412.125 187.5000000000001 406.2812499999999L199.2187500000001 207.0624999999999C199.2187500000001 199.2499999999999 207.0312500000001 193.375 212.9062500000001 187.5312499999999S224.6250000000001 175.8124999999999 238.3125000000001 175.8124999999999zM437.5 199.21875V406.25C437.5 412.125 437.5 425.78125 431.625 431.65625S412.09375 437.5312499999999 406.21875 437.5312499999999C400.34375 437.5312499999999 386.6875 437.5312499999999 380.8125 431.65625S374.9375 412.125 374.9375 406.25V207.03125C374.9375 199.21875 374.9375 187.5 380.8125 181.625S394.5 175.7500000000001 406.21875 175.7500000000001C417.9375 175.7500000000001 425.75 175.7500000000001 431.625 181.625S437.5 193.34375 437.5 199.21875zM625 199.21875V406.25C625 412.125 625 425.78125 619.125 431.65625S599.59375 437.5312499999999 593.7187500000001 437.5312499999999C587.8437500000001 437.5312499999999 574.1875000000001 437.5312499999999 568.3125000000001 431.65625S562.4375000000001 412.125 562.4375000000001 406.25V207.03125C562.4375000000001 199.21875 562.4375000000001 187.5 568.3125000000001 181.625S582.0000000000001 175.7500000000001 593.7187500000001 175.7500000000001C605.4375000000001 175.7500000000001 613.2500000000001 175.7500000000001 619.125 181.625S625 193.34375 625 199.21875zM800.78125 199.21875L812.5 406.25C812.5 412.125 812.5 425.78125 806.625 431.65625S792.9375000000001 437.5312499999999 781.2187500000001 437.5312499999999C775.3437500000001 437.5312499999999 761.6875000000001 437.5312499999999 755.8125000000001 431.65625S749.9375000000001 417.96875 749.9375000000001 406.25L738.2187500000001 207.03125C738.2187500000001 199.21875 738.2187500000001 187.5 744.0937500000001 181.625S755.8125000000001 167.9375000000001 761.6875000000001 167.9375000000001C769.5000000000001 167.9375000000001 775.375 167.9375000000001 781.2187500000001 175.7500000000001C787.09375 181.625 792.9375000000001 193.34375 800.7500000000001 199.1875000000001zM230.46875 792.96875L187.5 593.75H125L175.78125 806.65625C181.65625 837.90625 193.375 855.5 218.75 875.03125S269.53125 900.4375 292.96875 900.4375H375C375 906.3125 375 918.03125 380.875 925.84375C386.7500000000001 931.71875 400.40625 937.5625 406.2812500000001 937.5625H593.78125C599.65625 937.5625 613.3125 937.5625 619.1875 931.6875S625.0625 912.15625 625.0625 906.28125H707.09375C738.34375 906.28125 761.78125 900.40625 781.3125 880.875C800.84375 863.28125 818.4374999999999 837.90625 824.28125 812.5L875.0625 593.75H812.5625L769.59375 792.96875C761.78125 806.65625 755.90625 818.375 744.1875 832.03125C730.5 843.75 718.78125 843.75 707.0625 843.75H625.03125C625.03125 837.875 625.03125 824.21875 619.1562500000001 818.34375S599.6250000000001 812.46875 593.7500000000001 812.46875H406.2500000000001C400.3750000000001 812.46875 386.7187500000001 812.46875 380.8437500000001 818.34375S374.9687500000001 837.875 374.9687500000001 843.75H292.9375000000001C281.2187500000001 843.75 269.5000000000001 837.875 255.8125000000001 832.03125C244.0937500000001 824.21875 238.2187500000001 806.625 230.4062500000001 792.96875z" />
    <glyph glyph-name="shopping-cart-8"
      unicode="&#xEA11;"
      horiz-adv-x="1000" d="M980.46875 212.875L1000 37.09375C1000 25.375 1000 19.5000000000001 994.125 11.6875000000001C988.2500000000002 5.8125000000001 974.59375 -0.0312499999999 968.7187500000002 -0.0312499999999H37.0625000000001C25.3437500000001 -0.0312499999999 19.4687500000001 5.84375 11.6562500000001 11.6875000000001C-0.0624999999999 19.5000000000001 -0.0624999999999 31.2187500000001 -0.0624999999999 37.09375L19.4687500000001 212.875zM931.65625 681.625L980.4999999999998 249.96875H25.40625L74.25 681.625C74.25 687.5 82.0625 699.21875 87.9375 707.03125C93.8125 712.90625 99.65625 712.90625 113.34375 712.90625H250.0625V644.53125C250.0625 625 255.9375 605.46875 269.59375 593.75C281.3125 582.03125 300.84375 574.21875 318.4375 574.21875C337.96875 574.21875 355.5625 582.03125 369.21875 593.75C380.9375 605.46875 394.625 625 394.625 644.53125V712.90625H605.5625V644.53125C605.5625 625 613.375 605.46875 625.09375 593.75S656.34375 574.21875 675.875 574.21875C693.46875 574.21875 713 582.03125 724.71875 593.75C744.25 605.46875 750.1249999999999 625 750.1249999999999 644.53125V712.90625H894.6562499999999C900.5312499999999 712.90625 912.2499999999998 712.90625 918.0937499999998 707.03125C925.9062499999998 699.21875 925.9062499999998 693.34375 931.7812499999998 681.625zM712.90625 787.09375V644.5C712.90625 630.8125 707.03125 624.96875 699.21875 619.09375C693.34375 613.21875 687.5 605.40625 675.78125 605.40625C662.09375 605.40625 656.25 613.21875 650.375 619.09375S636.6875000000001 630.8125 636.6875000000001 644.5V787.09375C636.6875000000001 824.21875 624.9687500000001 863.28125 593.7187500000001 886.71875C574.1875000000001 912.125 537.0625000000001 931.65625 499.9687500000001 931.65625S425.7500000000001 912.125 400.3437500000001 886.71875C374.9375000000001 863.28125 355.4062500000001 824.21875 355.4062500000001 787.09375V644.5C355.4062500000001 630.8125 349.53125 624.96875 343.6875000000001 619.09375S331.9687500000001 605.40625 318.28125 605.40625C312.40625 605.40625 306.5625 613.21875 292.875 619.09375C287 624.96875 287 630.8125 287 644.5V787.09375C287 843.75 306.53125 900.3750000000001 349.5 937.5C394.4375 974.625 443.25 1000 499.90625 1000S613.1875 980.46875 650.3125 937.5C687.4374999999999 894.53125 712.8125 843.75 712.8125 787.09375z" />
    <glyph glyph-name="shopping-cart-9"
      unicode="&#xEA12;"
      horiz-adv-x="1066.6666666666667" d="M1060 786.6666666666667C1053.3333333333335 793.3333333333335 1040 800.0000000000001 1033.3333333333335 800.0000000000001H226.6666666666667L186.6666666666667 973.3333333333334C180 986.6666666666669 166.6666666666667 1000.0000000000002 153.3333333333334 1000.0000000000002H33.3333333333333C13.3333333333333 1000.0000000000002 0 986.6666666666669 0 966.6666666666669S13.3333333333333 933.3333333333334 33.3333333333333 933.3333333333334H126.6666666666667L273.3333333333333 293.3333333333334C280.0000000000001 280 293.3333333333334 266.6666666666668 306.6666666666667 266.6666666666668H940C940 266.6666666666668 940 266.6666666666668 940 266.6666666666668C940 266.6666666666668 940 266.6666666666668 946.6666666666669 266.6666666666668C960 266.6666666666668 973.3333333333334 280 980 293.3333333333334L1066.6666666666667 760.0000000000001C1066.6666666666667 773.3333333333335 1066.6666666666667 780.0000000000001 1060 786.6666666666667zM920.0000000000002 333.3333333333334H333.3333333333334L240.0000000000001 733.3333333333335H993.3333333333334L920.0000000000002 333.3333333333334zM766.6666666666667 200.0000000000001C713.3333333333334 200.0000000000001 666.6666666666667 153.3333333333335 666.6666666666667 100S713.3333333333334 0 766.6666666666667 0S866.6666666666667 46.6666666666666 866.6666666666667 100S820.0000000000001 200.0000000000001 766.6666666666667 200.0000000000001zM766.6666666666667 66.6666666666667C746.6666666666666 66.6666666666667 733.3333333333334 80 733.3333333333334 100S746.6666666666666 133.3333333333334 766.6666666666667 133.3333333333334S800 120.0000000000001 800 100S786.6666666666667 66.6666666666667 766.6666666666667 66.6666666666667zM433.3333333333334 200.0000000000001C380.0000000000001 200.0000000000001 333.3333333333334 153.3333333333335 333.3333333333334 100S380.0000000000001 0 433.3333333333334 0S533.3333333333334 46.6666666666666 533.3333333333334 100S486.6666666666667 200.0000000000001 433.3333333333334 200.0000000000001zM433.3333333333334 66.6666666666667C413.3333333333334 66.6666666666667 400 80 400 100S413.3333333333334 133.3333333333334 433.3333333333334 133.3333333333334S466.6666666666667 120.0000000000001 466.6666666666667 100S453.3333333333334 66.6666666666667 433.3333333333334 66.6666666666667z" />
    <glyph glyph-name="zillow"
      unicode="&#xEA13;"
      horiz-adv-x="1000" d="M544.9375 898.4375C488.2812499999999 873.03125 330.09375 750 244.15625 683.59375C347.6875 718.75 599.625 775.40625 730.4999999999999 777.34375C689.46875 806.65625 574.2499999999999 884.78125 544.9375 898.4375zM753.90625 761.71875C753.90625 761.71875 441.40625 447.2499999999999 392.5625 402.34375C488.28125 435.5625 681.6249999999999 476.5625 806.6249999999999 484.375C820.3124999999999 527.34375 835.9374999999999 558.59375 835.9374999999999 558.59375L999.9999999999998 576.1875C999.9999999999998 576.1875 874.9999999999999 677.75 753.9062499999999 761.75zM42.96875 101.5625C78.125 117.1875 414.0625 230.46875 722.65625 248.0625C730.46875 275.40625 763.6875 363.3124999999999 769.53125 386.7499999999999C449.21875 363.3124999999999 187.5 267.59375 82.03125 218.7812499999999zM95.71875 251.9375C193.375 353.5 548.84375 679.6875 548.84375 679.6875C363.28125 636.71875 171.875 578.125 103.53125 546.875L0 441.40625C85.9375 459 113.28125 462.90625 177.75 472.65625z" />
    <glyph glyph-name="zomato"
      unicode="&#xEA14;"
      horiz-adv-x="1000" d="M0 500A500 500 0 0 1 1000 500A500 500 0 0 1 0 500M0 506.25L46.875 509.3749999999999C146.875 515.625 218.75 521.875 290.625 600C406.25 721.875 696.875 687.5 796.875 553.125C840.625 496.8749999999999 837.5 453.125 790.625 399.9999999999999C665.625 256.2499999999999 390.625 249.9999999999999 262.5000000000001 387.5C225.0000000000001 434.375 165.6250000000001 459.375 106.2500000000001 459.375L0 453.125C0 453.125 0 484.375 0 506.25z" />
    <glyph glyph-name="pro"
      unicode="&#xEA4C;"
      horiz-adv-x="1000" d="M986.42578125 962.6953125A31.03515625 31.03515625 0 0 1 962.59765625 986.5234375C899.70703125 1000 850.5078125 1000 801.484375 1000C599.921875 1000 479.0234375000001 892.1875 388.8085937500001 750H185.29296875A93.75 93.75 0 0 1 101.5625 698.26171875L5.0390625 505.2929687499999A46.875 46.875 0 0 1 47.01171875 437.5H249.6875L205.80078125 393.61328125A62.5 62.5 0 0 1 205.80078125 305.234375L305.21484375 205.80078125A62.5 62.5 0 0 1 393.61328125 205.80078125L437.5 249.6875V46.875A46.875 46.875 0 0 1 505.2734375 4.90234375L698.046875 101.3671875A93.57421874999999 93.57421874999999 0 0 1 749.8046875 185.1562499999999V389.08203125C891.58203125 479.51171875 999.8046875 600.80078125 999.8046875 801.3671875C1000 850.5859375 1000 899.8046875 986.4257812499998 962.6953125zM750 671.875A78.125 78.125 0 1 0 828.125 750A78.125 78.125 0 0 0 750 671.875z" />
    <glyph glyph-name="500px"
      unicode="&#xEA15;"
      horiz-adv-x="875" d="M201.7578125 327.5390625C189.0625 355.2734375 188.28125 363.28125 216.2109375 372.65625C266.2109375 388.28125 231.8359375 354.6875 300.5859375 276.5625H301.1718750000001V459.9609375C303.515625 558.0078125 387.1093750000001 640.0390625 491.9921875000001 640.0390625C597.265625 640.0390625 682.8125 555.078125 682.8125 450.9765625C682.8125 327.1484375 564.0625 229.8828125 431.8359375000001 268.7499999999999C411.3281250000001 276.9531249999999 427.7343750000001 330.6640624999999 448.4375000000001 324.609375C551.953125 324.609375 623.046875 344.3359375 623.046875 450.390625C623.046875 569.53125 472.4609375 625.390625 394.7265625 537.5C348.828125 485.9375 360.3515625 455.2734375 360.3515625 229.6875C459.375 169.140625 591.40625 186.71875 673.6328125 268.9453125000001C722.0703125 317.3828125000001 748.828125 382.2265625000001 748.828125 450.5859375000001C748.828125 519.3359375 721.8749999999999 583.7890625 673.0468749999999 632.8125000000001C624.6093749999999 681.2500000000001 560.1562499999999 708.0078125000001 490.8203124999999 708.0078125000001S356.4453124999999 681.0546875000001 308.2031249999999 632.8125000000001C307.6171874999999 632.2265625000001 276.9531249999999 600.5859375000001 266.796875 586.1328125000001L265.8203125 584.9609375000001C259.3749999999999 575.7812500000001 253.5156249999999 567.1875000000001 226.5625 573.0468750000001C213.0859375 576.3671875000001 198.6328125 584.3750000000002 198.6328125 596.0937500000002V960.9375C198.6328125 970.703125 206.25 981.4453125 219.140625 981.4453125H690.4296875C706.640625 981.4453125 706.640625 958.7890625 706.640625 951.953125C706.640625 944.3359375 706.640625 922.4609375 690.4296875 922.4609375H254.4921875000001V662.890625H255.0781250000001C458.59375 877.34375 807.4218750000001 733.203125 807.4218750000001 450.1953125C807.4218750000001 102.34375 329.2968750000001 19.921875 201.7578125 327.5390625zM325.390625 836.9140625C324.4140625 828.7109375 334.375 789.0625 353.90625 796.6796875C597.65625 889.453125 750 717.7734375 762.890625 717.7734375C772.2656250000001 717.7734375 807.4218750000001 747.65625 790.8203125000001 762.3046875C608.7890625000001 936.1328125 332.8125000000001 873.6328125 325.3906250000001 836.9140625zM767.578125 190.0390625C552.734375 -24.609375 183.59375 71.2890625 119.140625 393.5546875C119.140625 417.3828125 59.765625 408.0078125 62.6953125 387.109375C109.5703125 48.4374999999999 543.1640625 -114.6484375 808.0078125000001 150.1953125C821.484375 165.4296875 783.3984375 205.6640624999999 767.5781250000001 190.0390624999999zM417.1875 401.171875C417.1875 393.359375 425.5859375 386.9140624999999 427.9296875 384.5703125C433.7890625 378.7109375 439.84375 375.9765625 444.53125 375.9765625C451.953125 375.9765625 449.609375 375.5859375 488.0859375 414.0625C526.3671875 376.3671875 525.390625 375.9765625 531.640625 375.9765625C542.1874999999999 375.9765625 567.7734375 396.2890625 552.5390625 411.5234375L518.75 445.3125L554.296875 480.859375C566.6015625 494.140625 534.5703125 523.4375 522.65625 511.5234374999999L487.6953125 476.5625C451.3671875 513.28125 451.7578124999999 514.6484375 445.703125 514.6484375C435.9375 514.6484375 410.546875 491.796875 421.484375 480.859375L457.03125 445.3125C421.6796875 410.3515625 417.1875 407.8125 417.1875 401.171875z" />
    <glyph glyph-name="android"
      unicode="&#xEA16;"
      horiz-adv-x="875" d="M175 600.5859375V374.4140625C175 344.3359375 151.3671875 320.3125 121.2890625 320.3125C91.40625 320.3125 62.5 344.53125 62.5 374.4140625V600.5859375C62.5 630.078125 91.40625 654.296875 121.2890625 654.296875C150.78125 654.296875 175 630.078125 175 600.5859375zM196.09375 293.9453125C196.09375 261.9140625 221.875 236.1328125 253.90625 236.1328125H292.7734375L293.3593750000001 116.7968749999999C293.3593750000001 44.7265625 401.1718750000001 45.3124999999999 401.1718750000001 116.7968749999999V236.1328125H473.8281250000001V116.7968749999999C473.8281250000001 45.1171874999999 582.2265625 44.9218749999999 582.2265625 116.7968749999999V236.1328125H621.6796875C653.3203125 236.1328125 679.1015625 261.9140624999999 679.1015625 293.9453125V644.3359375H196.09375V293.9453125zM680.46875 663.28125H193.9453125C193.9453125 746.875 243.9453125 819.53125 318.1640625 857.421875L280.859375 926.3671875C275.390625 935.9375 289.2578125000001 941.9921875 293.9453125 933.7890625L331.8359375 864.2578125C400 894.53125 478.3203125 892.96875 543.359375 864.2578125L581.0546875 933.59375C585.9375 941.9921875 599.609375 935.7421875 594.140625 926.171875L556.8359375 857.421875C630.46875 819.53125 680.4687500000001 746.875 680.4687500000001 663.28125zM347.0703125 771.6796875C347.0703125 782.8125 338.0859375 792.1875 326.5625 792.1875C315.4296875 792.1875 306.640625 782.8125 306.640625 771.6796875S315.625 751.171875 326.5625 751.171875C338.0859375 751.171875 347.0703125 760.546875 347.0703125 771.6796875zM568.5546875 771.6796875C568.5546875 782.8125 559.5703125 792.1875 548.6328125000001 792.1875C537.1093750000001 792.1875 528.1250000000001 782.8125 528.1250000000001 771.6796875S537.1093750000001 751.171875 548.6328125000001 751.171875C559.5703125000001 751.171875 568.5546875 760.546875 568.5546875 771.6796875zM753.7109375000001 654.296875C724.21875 654.296875 700.0000000000001 630.6640625 700.0000000000001 600.5859375V374.4140625C700.0000000000001 344.3359375 724.21875 320.3125 753.7109375000001 320.3125C783.7890625 320.3125 812.5000000000001 344.53125 812.5000000000001 374.4140625V600.5859375C812.5000000000001 630.6640625 783.5937500000001 654.296875 753.7109375000001 654.296875z" />
    <glyph glyph-name="angle-down"
      unicode="&#xEA17;"
      horiz-adv-x="625" d="M279.296875 311.9140625L13.671875 577.5390625C-4.6875 595.8984375 -4.6875 625.5859375 13.671875 643.75L57.8125 687.890625C76.171875 706.25 105.859375 706.25 124.0234375 687.890625L312.3046875 499.6093749999999L500.5859375 687.890625C518.9453125 706.25 548.6328125000001 706.25 566.796875 687.890625L610.9375 643.75C629.296875 625.390625 629.296875 595.703125 610.9375 577.5390625L345.3125 311.9140624999999C327.3437500000001 293.5546874999999 297.65625 293.5546874999999 279.296875 311.9140624999999z" />
    <glyph glyph-name="angle-left"
      unicode="&#xEA18;"
      horiz-adv-x="500" d="M61.9140625 533.203125L327.5390625 798.828125C345.8984375 817.1875 375.5859375 817.1875 393.75 798.828125L437.890625 754.6875C456.25 736.328125 456.25 706.640625 437.890625 688.4765625L249.8046875 500L438.0859375 311.71875C456.4453125000001 293.3593750000001 456.4453125000001 263.671875 438.0859375 245.5078125000001L393.9453125 201.171875C375.5859375 182.8125 345.8984375 182.8125 327.734375 201.171875L62.109375 466.796875C43.5546875 485.15625 43.5546875 514.84375 61.9140625 533.203125z" />
    <glyph glyph-name="angle-right"
      unicode="&#xEA19;"
      horiz-adv-x="500" d="M438.0859375 466.796875L172.4609375 201.171875C154.1015625 182.8125 124.4140625 182.8125 106.25 201.171875L62.109375 245.3125C43.75 263.671875 43.75 293.3593750000001 62.109375 311.5234375L250.3906250000001 499.8046874999999L62.109375 688.0859375C43.75 706.4453125 43.75 736.1328125 62.109375 754.296875L106.0546875 798.828125C124.4140625 817.1875 154.1015625 817.1875 172.265625 798.828125L437.890625 533.203125C456.4453125 514.84375 456.4453125 485.15625 438.0859375 466.796875z" />
    <glyph glyph-name="angle-up"
      unicode="&#xEA1A;"
      horiz-adv-x="625" d="M345.703125 688.0859375L611.328125 422.4609375C629.6875 404.1015625000001 629.6875 374.4140625 611.328125 356.2500000000001L567.1875 312.109375C548.828125 293.7500000000001 519.1406249999999 293.7500000000001 500.9765625 312.109375L312.5 500.1953125L124.21875 311.9140625C105.859375 293.5546875 76.171875 293.5546875 58.0078125 311.9140625L13.671875 356.0546875C-4.6875 374.4140625 -4.6875 404.1015625000001 13.671875 422.265625L279.296875 687.890625C297.65625 706.4453125 327.34375 706.4453125 345.703125 688.0859375z" />
    <glyph glyph-name="apple"
      unicode="&#xEA1B;"
      horiz-adv-x="735.3515625" d="M614.6484375 475.1953125C614.2578125 546.875 646.6796874999999 600.9765625 712.3046875 640.8203125C675.5859375 693.359375 620.1171875 722.265625 546.875 727.9296875C477.5390625 733.3984375 401.7578125 687.5 374.0234375 687.5C344.7265625 687.5 277.5390625 725.9765625 224.8046875 725.9765625C115.8203125 724.21875 0 639.0625 0 465.8203125C0 414.6484375 9.375 361.71875 28.125 307.2265625C53.125 235.546875 143.359375 59.765625 237.5000000000001 62.6953125C286.71875 63.8671875000001 321.4843750000001 97.65625 385.546875 97.65625C447.6562500000001 97.65625 479.8828125 62.6953125 534.765625 62.6953125C629.6875000000001 64.0625 711.3281250000001 223.828125 735.15625 295.7031250000001C607.8125 355.6640625 614.6484375 471.4843750000001 614.6484375 475.1953125000001zM504.1015624999999 795.8984375C557.421875 859.1796875 552.5390625 916.796875 550.9765624999999 937.5C503.9062499999999 934.765625 449.4140625 905.46875 418.359375 869.3359375C384.1796875 830.6640625 364.0624999999999 782.8125 368.359375 728.90625C419.3359375 725 465.8203124999999 751.171875 504.1015624999999 795.8984375z" />
    <glyph glyph-name="behance"
      unicode="&#xEA1C;"
      horiz-adv-x="1125" d="M453.125 536.71875C515.234375 566.40625 547.65625 611.328125 547.65625 681.25C547.65625 819.140625 444.921875 852.734375 326.3671875 852.734375H0V160.5468750000001H335.546875C461.3281250000001 160.5468750000001 579.4921875000001 220.8984375 579.4921875000001 361.5234375C579.4921875000001 448.4375 538.28125 512.6953125 453.1250000000001 536.71875zM152.1484375 734.5703125H294.921875C349.8046875 734.5703125 399.21875 719.140625 399.21875 655.46875C399.21875 596.6796875 360.7421875000001 573.046875 306.4453125 573.046875H152.1484375V734.5703125zM314.84375 278.125H152.1484375V468.75H317.96875C384.9609375000001 468.75 427.34375 440.8203125 427.34375 369.921875C427.34375 299.9999999999999 376.7578125 278.125 314.8437500000001 278.125zM1015.0390625000002 748.2421875H734.375V816.40625H1015.0390625000002V748.2421875zM1125 403.90625C1125 552.1484375 1038.28125 675.78125 881.0546875 675.78125C728.3203125000001 675.78125 624.609375 560.9375 624.609375 410.546875C624.609375 254.4921874999999 722.8515625 147.4609375 881.0546875 147.4609375C1000.78125 147.4609375 1078.3203125 201.3671875 1115.625 316.015625H994.140625C981.0546875 273.2421875000001 927.1484375 250.5859375 885.3515625 250.5859375C804.6875 250.5859375 762.3046875 297.8515625 762.3046875 378.125H1123.828125C1124.4140624999998 386.328125 1125 395.1171875 1125 403.90625zM762.5 464.84375C766.9921875 530.6640625 810.7421874999999 571.875 876.7578125 571.875C945.8984374999998 571.875 980.6640624999998 531.25 986.5234374999998 464.84375H762.5z" />
    <glyph glyph-name="bitbucket"
      unicode="&#xEA1D;"
      horiz-adv-x="1000" d="M45.1171875 937.5C27.734375 937.6953125 13.671875 924.0234375 13.4765625 906.640625C13.4765625 904.8828125 13.671875 903.125 13.8671875 901.171875L146.2890625 97.65625C149.609375 77.34375 167.1875 62.5 187.6953125 62.3046875H822.6562500000001C838.0859375 62.1093749999999 851.3671875000001 73.2421875 853.9062500000001 88.4765624999999L986.3281250000002 900.9765624999998C989.0625000000002 917.9687499999998 977.5390625000002 933.9843749999998 960.5468750000002 936.7187499999998C958.7890625000002 936.9140624999998 957.0312500000002 937.1093749999998 955.0781250000002 937.1093749999998L45.1171875 937.5zM602.3437500000001 356.8359375H399.609375L344.7265625 643.5546875H651.3671875L602.34375 356.8359375z" />
    <glyph glyph-name="delicious"
      unicode="&#xEA1E;"
      horiz-adv-x="875" d="M872.0703125 867.1875C871.2890625 870.1171875 870.3125 873.046875 869.3359375 875.9765625C867.5781250000001 880.859375 865.4296875 885.3515625 862.890625 889.84375C860.1562500000001 894.53125 857.03125 899.21875 853.7109375 903.3203125C849.609375 908.203125 845.1171875000001 912.6953125 840.2343750000001 916.6015625C838.0859375 918.359375 835.9375000000001 919.921875 833.7890625000001 921.484375C831.25 923.2421875 828.7109375 924.8046875 825.9765625000001 926.171875C822.4609375 928.125 818.9453125 929.6875 815.2343750000001 931.0546875C811.9140625000001 932.421875 808.3984375000001 933.59375 804.6875000000001 934.375C797.2656250000001 936.328125 789.2578125000001 937.3046875 781.2500000000001 937.3046875H93.75C41.9921875 937.5 0 895.5078125 0 843.75V156.25C0 148.2421875 0.9765625 140.234375 2.9296875 132.8125C6.8359375 117.7734375 14.2578125 104.296875 24.4140625 93.1640625C26.3671875 91.0156249999999 28.515625 88.8671875 30.859375 86.71875C41.9921875 76.5625 55.46875 69.140625 70.5078125 65.234375C77.9296875 63.28125 85.9375 62.3046875 93.9453125 62.3046875H781.4453125C833.203125 62.3046875 875.1953125 104.296875 875.1953125 156.0546875V843.75C875 851.7578125 874.0234375 859.765625 872.0703125 867.1875zM812.5 156.25C812.5 139.0625 798.4375 125 781.25 125H437.5V500H62.5V843.75C62.5 860.9375 76.5625 875 93.75 875H437.5V500H812.5V156.25z" />
    <glyph glyph-name="dribbble"
      unicode="&#xEA20;"
      horiz-adv-x="1000" d="M500 984.375C232.9140625 984.375 15.625 767.0859375 15.625 500S232.9140625 15.625 500 15.625S984.375 232.9140625 984.375 500S767.0859375 984.375 500 984.375zM820.25390625 761.00390625C877.876953125 690.6015625 912.7714843750002 600.931640625 913.681640625 503.2792968749999C900.041015625 506.1640624999999 763.2558593750001 533.908203125 625.591796875 516.595703125C614.357421875 544.01953125 603.75390625 568.14453125 589.23046875 597.873046875C742.2011718749999 660.328125 811.5312499999999 749.205078125 820.2539062499999 761.00390625zM774.259765625 808.84765625C766.818359375 798.248046875 704.5390625 714.5390625 557.421875 659.396484375C489.625 783.958984375 414.482421875 886.287109375 403.046875 901.599609375C534.2499999999999 933.2265625 672.5117187499999 899.119140625 774.2597656249999 808.84765625zM324.103515625 873.7890625C335.01171875 858.830078125 408.9433593750001 756.375 477.49609375 634.513671875C283.9667968750001 583.12109375 113.51171875 583.861328125 95.0078125 584.10546875C121.8359375 712.490234375 208.35546875 819.193359375 324.103515625 873.7890625zM86.26953125 499.3691406250001C86.26953125 503.5996093750001 86.353515625 507.8105468750001 86.48046875 512.01171875C104.58203125 511.6406250000001 305.07421875 509.0566406250001 511.6874999999999 570.8906250000001C523.53125 547.7109375000001 534.845703125 524.1816406250001 545.2304687499999 500.6777343750001C395.623046875 458.5390625000001 259.6953125 337.5390625000001 192.6308593749999 222.7363281250001C126.55078125 296.083984375 86.26953125 393.10546875 86.26953125 499.3691406250001zM246.048828125 172.9765625C289.265625 261.322265625 406.552734375 375.3632812500001 573.3515625000001 432.2656250000001C631.4375000000001 281.3222656250001 655.458984375 154.8183593750001 661.6113281250001 118.51953125C528.5800781250001 61.8535156250001 368.6132812500002 77.400390625 246.0488281250001 172.9765625zM731.166015625 156.3964843750001C726.92578125 181.5644531250001 704.9042968749999 302.6796875000001 650.791015625 451.3828125000001C780.439453125 472.1367187500001 894.345703125 438.1640625000003 908.5 433.6972656250001C890.05859375 318.5781250000001 823.9824218749999 219.1582031250001 731.166015625 156.3964843750001z" />
    <glyph glyph-name="facebook-f"
      unicode="&#xEA21;"
      horiz-adv-x="515.625" d="M149.8046875 0V447.265625H0V625H149.8046875V765.0390625C149.8046875 917.1875 242.7734375 1000 378.515625 1000C443.5546875000001 1000 499.4140625000001 995.1171875 515.625 992.96875V833.984375H421.484375C347.65625 833.984375 333.3984375000001 798.828125 333.3984375000001 747.4609375V625H500L477.1484375 447.265625H333.3984375000001V0" />
    <glyph glyph-name="facebook"
      unicode="&#xEA22;"
      horiz-adv-x="875" d="M875 889.2578125V110.9375C875 84.1796875 853.3203125 62.6953125 826.7578125 62.6953125H603.7109375V401.3671875H717.3828125L734.375 533.3984375H603.515625V617.7734375C603.515625 656.0546875 614.0625 682.03125 668.9453125 682.03125H738.8671875V800.1953125C726.7578125 801.7578125 685.3515625000001 805.46875 636.9140625 805.46875C536.1328125 805.46875 466.9921875000001 743.9453125 466.9921875000001 630.859375V533.3984375H352.9296875000001V401.3671875H466.9921875000001V62.5H48.2421875C21.6796875 62.5 0 84.1796875 0 110.7421875V889.2578125C0 915.8203125 21.6796875 937.5 48.2421875 937.5H826.5625C853.3203125 937.5 875 915.8203125 875 889.2578125z" />
    <glyph glyph-name="flickr"
      unicode="&#xEA23;"
      horiz-adv-x="875" d="M781.25 937.5H93.75C41.9921875 937.5 0 895.5078125 0 843.75V156.25C0 104.4921875 41.9921875 62.5 93.75 62.5H781.25C833.0078125 62.5 875 104.4921875 875 156.25V843.75C875 895.5078125 833.0078125 937.5 781.25 937.5zM282.2265625 376.953125C213.671875 376.953125 158.203125 432.421875 158.203125 500.9765625S213.671875 625 282.2265625 625S406.25 569.53125 406.25 500.9765625S350.78125 376.953125 282.2265625 376.953125zM592.7734375 376.953125C524.21875 376.953125 468.75 432.421875 468.75 500.9765625S524.21875 625 592.7734375 625S716.796875 569.53125 716.796875 500.9765625S661.328125 376.953125 592.7734375 376.953125z" />
    <glyph glyph-name="foursquare"
      unicode="&#xEA24;"
      horiz-adv-x="718.75" d="M631.0546875 994.140625H97.4609375C24.21875 994.140625 0 938.8671875 0 904.1015625V56.8359374999999C0 17.1874999999999 23.6328125 2.734375 35.546875 -1.953125C47.65625 -6.8359375 80.078125 -10.9375 99.8046875 11.9140625C351.5625 303.7109375 355.859375 308.59375 355.859375 308.59375C361.9140625 315.234375 362.5 314.6484375 369.140625 314.6484375H532.03125C600.5859375 314.6484375 611.328125 363.8671875 618.5546875 392.1875L713.4765625 866.796875C730.078125 949.609375 709.1796875 994.140625 631.0546875 994.140625zM599.21875 850L576.9531250000001 733.3984375C574.6093750000001 720.703125 558.3984375000001 707.6171875 543.9453125000001 707.6171875H336.1328125C312.6953125 707.6171875 295.8984375 691.40625 295.8984375 667.96875V642.578125C295.8984375 619.140625 312.6953125 602.34375 336.1328125 602.34375H512.6953125C528.90625 602.34375 545.1171875 584.375 541.6015625 566.796875C538.0859375 549.4140625 521.09375 461.7187500000001 519.3359375000001 451.9531250000001C517.5781250000001 442.3828125000001 506.0546875000001 425.5859375000001 486.3281250000001 425.5859375000001H342.7734375000001C316.4062500000001 425.5859375000001 309.1796875000001 422.0703125 291.0156250000001 400.9765625C291.0156250000001 400.9765625 273.6328125000001 378.7109375000001 116.2109375000001 189.453125C114.4531250000001 187.6953125 112.6953125000001 188.28125 112.6953125000001 190.0390625V851.7578125C112.6953125000001 866.796875 125.9765625000001 884.1796875 145.1171875000001 884.1796875H572.8515625000001C588.8671875000001 884.1796875 603.3203125000002 869.140625 599.2187500000001 850z" />
    <glyph glyph-name="github"
      unicode="&#xEA25;"
      horiz-adv-x="968.75" d="M324.0234375 223.828125C324.0234375 219.921875 319.53125 216.796875 313.8671875000001 216.796875C307.421875 216.2109375 302.9296875000001 219.3359375 302.9296875000001 223.828125C302.9296875000001 227.734375 307.4218750000001 230.8593750000001 313.0859375 230.8593750000001C318.9453125 231.4453125000001 324.0234375 228.3203125000001 324.0234375 223.828125zM263.28125 232.6171875C261.9140625000001 228.7109375 265.8203125000001 224.21875 271.6796875000001 223.0468750000001C276.7578125000001 221.0937500000001 282.6171875000001 223.0468750000001 283.7890625 226.9531250000001S281.25 235.3515625000001 275.390625 237.1093750000001C270.3125 238.4765625 264.6484375 236.5234375 263.28125 232.6171875zM349.609375 235.9375C343.9453125 234.5703125 340.0390625 230.859375 340.625 226.3671875000001C341.2109375000001 222.4609375000001 346.2890625 219.921875 352.1484375 221.2890625C357.8125000000001 222.65625 361.7187500000001 226.3671875000001 361.1328125 230.2734375000001C360.546875 233.984375 355.2734375 236.5234375 349.609375 235.9375zM478.125 984.375C207.2265625 984.375 0 778.7109375 0 507.8125C0 291.2109375 136.328125 105.859375 331.0546875 40.625C356.0546875 36.1328125 364.84375 51.5625000000001 364.84375 64.2578125000001C364.84375 76.3671875 364.2578125 143.1640625 364.2578125 184.1796875C364.2578125 184.1796875 227.5390625 154.8828125 198.828125 242.3828125C198.828125 242.3828125 176.5625 299.2187500000001 144.53125 313.8671875000001C144.53125 313.8671875000001 99.8046875 344.5312500000001 147.65625 343.9453125C147.65625 343.9453125 196.2890625 340.0390625 223.046875 293.5546875C265.8203125 218.1640625 337.5 239.84375 365.4296875 252.7343750000001C369.921875 283.9843750000001 382.6171875 305.6640625000001 396.6796875 318.5546875C287.5 330.6640625 177.34375 346.4843750000001 177.34375 534.375C177.34375 588.0859375 192.1875 615.0390625 223.4375 649.4140625C218.359375 662.109375 201.7578125 714.453125 228.515625 782.03125C269.3359375 794.7265625 363.28125 729.296875 363.28125 729.296875C402.34375 740.234375 444.3359375 745.8984375 485.9375 745.8984375S569.53125 740.234375 608.59375 729.296875C608.59375 729.296875 702.5390625000001 794.921875 743.359375 782.03125C770.1171875 714.2578125000001 753.515625 662.109375 748.4375000000001 649.4140625C779.6875000000001 614.84375 798.8281250000001 587.890625 798.8281250000001 534.375C798.8281250000001 345.8984375 683.7890625000001 330.8593750000001 574.6093750000001 318.5546875C592.5781250000001 303.1250000000001 607.8125000000001 273.8281250000001 607.8125000000001 227.9296875000001C607.8125000000001 162.1093750000001 607.2265625000001 80.6640625000001 607.2265625000001 64.6484375C607.2265625000001 51.953125 616.2109375000001 36.5234375000001 641.0156250000001 41.015625C836.328125 105.859375 968.75 291.2109375 968.75 507.8125C968.75 778.7109375 749.0234375 984.375 478.125 984.375zM189.84375 310.7421875C187.3046875 308.7890625 187.890625 304.296875 191.2109375 300.5859375000001C194.3359375 297.4609375 198.828125 296.09375 201.3671875 298.6328125000001C203.90625 300.5859375000001 203.3203125 305.0781250000001 200 308.7890625C196.875 311.9140625000001 192.3828125 313.2812500000001 189.84375 310.7421875zM168.75 326.5625000000001C167.3828125 324.0234375000001 169.3359375 320.8984375000001 173.2421875 318.9453125000001C176.3671875 316.9921875000001 180.2734375 317.5781250000001 181.640625 320.3125000000001C183.0078125 322.8515625000001 181.0546875 325.9765625000001 177.1484375 327.9296875000001C173.2421875 329.1015625000001 170.1171875 328.5156250000001 168.75 326.5625000000001zM232.0312500000001 257.03125C228.9062500000001 254.4921875 230.0781250000001 248.6328125 234.5703125000001 244.9218750000001C239.0625 240.4296875 244.7265625000001 239.84375 247.2656250000001 242.9687500000001C249.8046875 245.5078125000001 248.6328125000001 251.3671875000001 244.7265625000001 255.078125C240.4296875000001 259.5703125000001 234.5703125000001 260.1562500000001 232.0312500000001 257.03125zM209.765625 285.7421875C206.640625 283.7890625 206.640625 278.7109375 209.765625 274.2187500000001C212.890625 269.7265625 218.1640625 267.7734375 220.703125 269.7265625C223.828125 272.2656250000001 223.828125 277.34375 220.703125 281.8359375C217.96875 286.328125 212.890625 288.28125 209.765625 285.7421875z" />
    <glyph glyph-name="google-plus"
      unicode="&#xEA26;"
      horiz-adv-x="968.75" d="M484.375 984.375C216.9921875 984.375 0 767.3828125 0 500S216.9921875 15.625 484.375 15.625S968.75 232.6171875 968.75 500S751.7578125 984.375 484.375 984.375zM346.2890625 257.8125C211.9140625 257.8125 104.1015625 366.2109375 104.1015625 500S211.9140625 742.1875 346.2890625 742.1875C407.4218750000001 742.1875 463.671875 720.703125 508.3984375 679.1015625L442.7734375000001 615.4296875C416.9921875000001 640.625 381.640625 652.734375 346.2890625 652.734375C262.5 652.734375 195.5078125 583.3984375 195.5078125 500.1953125S262.3046875 347.65625 346.2890625 347.65625C409.9609375 347.65625 473.0468750000001 384.9609375 483.203125 451.7578125H346.2890625V534.9609375H574.6093750000001C577.1484375000001 521.6796875 578.3203125 508.3984375 578.3203125 494.53125C578.3203125 356.25 485.5468750000001 257.8125 346.2890625 257.8125zM795.8984375 465.234375V395.8984375H726.5625V465.234375H657.2265625V534.5703125H726.5625V603.90625H795.8984375V534.5703125H864.6484375V465.234375H795.8984375z" />
    <glyph glyph-name="instagram"
      unicode="&#xEA27;"
      horiz-adv-x="875" d="M437.6953125 724.609375C313.4765625 724.609375 213.28125 624.4140625 213.28125 500.1953125S313.4765625 275.78125 437.6953125 275.78125S662.109375 375.9765625 662.109375 500.1953125S561.9140625 724.609375 437.6953125 724.609375zM437.6953125 354.296875C357.421875 354.296875 291.796875 419.7265625 291.796875 500.1953124999999S357.2265625 646.0937499999999 437.6953125 646.0937499999999S583.5937499999999 580.6640624999999 583.5937499999999 500.1953124999999S517.9687499999999 354.296875 437.6953125 354.296875zM723.6328125 733.7890625C723.6328125 704.6875 700.1953125 681.4453125 671.2890625 681.4453125C642.1875 681.4453125 618.9453125 704.8828125 618.9453125 733.7890625S642.3828125 786.1328125 671.2890625 786.1328125S723.6328125 762.6953125 723.6328125 733.7890625zM872.265625 680.6640625C868.9453125000001 750.78125 852.9296875000001 812.890625 801.5625000000001 864.0625C750.3906250000001 915.234375 688.2812500000001 931.25 618.1640625 934.765625C545.8984375 938.8671875 329.296875 938.8671875 257.03125 934.765625C187.109375 931.4453125 125 915.4296875 73.6328125 864.2578125S6.4453125 750.9765625 2.9296875 680.859375C-1.171875 608.59375 -1.171875 391.9921875 2.9296875 319.7265625C6.25 249.609375 22.265625 187.5 73.6328125 136.3281249999999S186.9140625 69.140625 257.03125 65.6249999999999C329.296875 61.5234374999999 545.8984375 61.5234374999999 618.1640625 65.6249999999999C688.28125 68.9453124999999 750.390625 84.9609374999999 801.5625 136.3281249999999C852.7343749999999 187.4999999999999 868.7499999999999 249.6093749999999 872.2656249999999 319.7265624999999C876.3671875 391.9921874999999 876.3671875 608.3984374999999 872.2656249999999 680.6640624999999zM778.90625 242.1875C763.671875 203.90625 734.1796875000001 174.4140625 695.703125 158.984375C638.0859375 136.1328125 501.3671875 141.40625 437.6953125 141.40625S237.109375 136.3281249999999 179.6875 158.984375C141.40625 174.21875 111.9140625 203.7109374999999 96.484375 242.1875C73.6328125 299.8046875 78.90625 436.5234375 78.90625 500.1953125S73.828125 700.78125 96.484375 758.203125C111.71875 796.484375 141.2109375 825.9765625 179.6875 841.40625C237.3046875 864.2578125 374.0234375 858.984375 437.6953125 858.984375S638.28125 864.0625 695.703125 841.40625C733.984375 826.171875 763.4765625 796.6796875 778.90625 758.203125C801.7578125 700.5859375 796.484375 563.8671875 796.484375 500.1953125S801.7578125 299.609375 778.90625 242.1875z" />
    <glyph glyph-name="jsfiddle"
      unicode="&#xEA28;"
      horiz-adv-x="1125" d="M997.33203125 536.20703125C988.0996093750002 541.326171875 986.26953125 547.43359375 984.8691406250002 557.25390625C980.2753906250002 589.45703125 977.9570312500002 622.916015625 967.1015625000002 653.142578125C896.9941406250001 848.37109375 666.3398437500001 933.193359375 484.9746093750002 832.138671875C431.5175781250001 802.353515625 389.3281250000001 761.10546875 357.0585937500002 707.328125C350.8398437500002 710.2734375 346.3984375000002 712.62109375 341.7773437500001 714.52734375C282.9843750000001 738.787109375 226.4472656250001 734.294921875 175.1152343750001 696.623046875C125.2500000000002 660.02734375 103.9785156250001 609.615234375 111.2949218750001 547.388671875C111.9882812500001 541.48046875 107.4531250000001 532.50390625 102.4785156250001 528.7460937500001C24.9160156250001 470.1679687500001 -6.9570312499999 376.275390625 20.6386718750001 285.3574218750001C47.6523437500001 196.3554687500001 132.9707031250001 129.5058593750001 226.9042968750002 126.3085937500001C286.0664062500001 124.2949218750001 345.3359375000001 125.2421875000001 404.5585937500001 125.2558593750001C568.7011718750001 125.2968750000002 732.8593750000001 124.2187500000001 896.9804687500001 126.1933593750002C999.8398437500002 127.4316406250002 1084.6914062500002 198.2109375000002 1108.3320312500002 296.6875000000003C1130.8710937500002 390.5820312500003 1086.5664062500002 486.7265625000002 997.3320312500002 536.2070312500002zM1038.556640625 229.80078125C1002.9511718749998 185.98828125 955.8554687499998 160.9472656250001 899.337890625 160.1718750000001C788.255859375 158.6464843750001 677.13671875 159.72265625 566.033203125 159.72265625C566.033203125 158.3554687500001 247.6191406250001 159.412109375 246.2519531250001 159.421875C160.5859375000001 160.0703125 96.37109375 198.0273437500001 60.36328125 276.599609375C23.4453125 357.1562500000001 52.54296875 454.0371093750001 127.1328125 503.3691406250001C145.06640625 515.23046875 151.556640625 525.958984375 146.8515625 548.556640625C136.12890625 600.04296875 155.548828125 642.220703125 198.453125 671.56640625C243.3496093750001 702.275390625 291.0742187500001 703.1015625 339.1445312500001 677.587890625C359.2011718750001 666.943359375 367.6738281250001 655.001953125 382.5000000000001 682.5234375C410.2773437500001 734.083984375 449.9941406250001 773.787109375 500.9980468750001 802.23828125C691.349609375 908.421875 947.033203125 787.45703125 950.6855468750002 543.064453125C950.9238281250002 527.146484375 955.396484375 518.791015625 969.9199218750002 512.021484375C1082.3417968750002 459.6210937499999 1115.3417968750002 324.2832031249999 1038.5566406250002 229.8007812499999zM867.09375 387.0253906250001C855.671875 326.1718750000001 799.47265625 279.4160156250001 736.88671875 279.41796875C703.775390625 279.419921875 674.2734375 292.201171875 650.794921875 313.998046875C596.69921875 364.21875 511.8476562499999 460.443359375 463.4179687499999 496.39453125C424.24609375 525.47265625 381.40625 520.482421875 345.69921875 489.0078125C248.05078125 402.9316406250001 376.673828125 251.166015625 476.6816406249999 338.25C485.5644531249999 345.984375 491.9941406249999 356.8886718750001 501.5722656249999 363.3359375C517.556640625 374.0957031250001 542.1308593749999 365.0625000000001 527.2910156249999 342.58984375C493.3886718749999 291.25390625 430.943359375 267.986328125 373.26171875 285.361328125C316.822265625 302.361328125 277.8710937499999 355.6113281250001 278.2890624999999 422.4296875C280.6816406249999 466.345703125 302.4374999999999 506.53125 347.45703125 531.736328125C391.5488281249999 556.419921875 438.021484375 557.412109375 478.2988281249999 526.904296875C577.5 451.7578125 625.912109375 367.24609375 687.861328125 329.16015625C735.826171875 299.669921875 793.826171875 314.779296875 822.28125 363.3515624999999C878.5898437499999 459.4628906249999 754.71875 568.4609375 668.2421875 487.2968749999999C660.451171875 479.9843749999998 654.732421875 469.8515624999998 645.9570312499999 464.4062499999998C624.5214843749999 451.1035156249999 612.1035156249999 472.4394531249998 620.9394531249999 484.6269531249998C661.3749999999998 540.3964843749998 719.5019531249999 563.6113281249998 783.5781249999999 539.7324218749998C844.9628906249999 516.8535156249998 879.4921874999999 453.0800781249999 867.0937499999999 387.0253906249999z" />
    <glyph glyph-name="linkedin-in"
      unicode="&#xEA29;"
      horiz-adv-x="875" d="M195.8984375 62.5H14.453125V646.6796875H195.8984375V62.5zM105.078125 726.3671875C47.0703125 726.3671875 0 774.4140625 0 832.421875C0 890.4296875 47.0703125 937.5 105.078125 937.5C163.0859375 937.5 210.15625 890.4296875 210.15625 832.421875C210.15625 774.4140625 163.0859375 726.3671875 105.078125 726.3671875zM875 62.5H693.9453125V346.875C693.9453125 414.6484375 692.578125 501.5625 599.609375 501.5625C505.2734375 501.5625 490.8203125 427.9296875 490.8203125 351.7578125V62.5H309.5703125V646.6796875H483.59375V566.9921875H486.1328125C510.3515625 612.890625 569.53125 661.328125 657.8125 661.328125C841.40625 661.328125 875.1953125 540.4296875 875.1953125 383.3984375V62.5z" />
    <glyph glyph-name="linkedin"
      unicode="&#xEA2A;"
      horiz-adv-x="875" d="M812.5 937.5H62.3046875C27.9296875 937.5 0 909.1796875 0 874.4140625V125.5859375C0 90.8203125 27.9296875 62.5 62.3046875 62.5H812.5C846.875 62.5 875 90.8203125 875 125.5859375V874.4140625C875 909.1796875 846.875 937.5 812.5 937.5zM264.453125 187.5H134.765625V605.078125H264.6484375V187.5zM199.609375 662.109375C158.0078125 662.109375 124.4140625 695.8984375 124.4140625 737.3046875S158.0078125 812.5 199.609375 812.5C241.015625 812.5 274.8046875 778.7109375 274.8046875 737.3046875C274.8046875 695.703125 241.2109375 662.109375 199.609375 662.109375zM750.5859375 187.5H620.8984375V390.625C620.8984375 439.0625 619.921875 501.3671875 553.515625 501.3671875C485.9374999999999 501.3671875 475.5859374999999 448.6328125 475.5859374999999 394.140625V187.5H345.8984375V605.078125H470.3124999999999V548.046875H472.0703124999999C489.4531249999999 580.859375 531.8359374999999 615.4296875 594.9218749999999 615.4296875C726.1718749999999 615.4296875 750.5859374999999 528.90625 750.5859374999999 416.4062500000001V187.5z" />
    <glyph glyph-name="medium"
      unicode="&#xEA2B;"
      horiz-adv-x="875" d="M0 937.5V62.5H875V937.5H0zM726.953125 730.2734375L680.078125 685.3515625C675.9765624999999 682.2265625 674.0234374999999 677.1484375 674.8046875 672.265625V341.6015625C674.0234375 336.5234374999999 675.9765625 331.4453125 680.078125 328.515625L725.9765625 283.59375V273.6328124999999H495.5078125V283.203125L542.96875 329.296875C547.65625 333.984375 547.65625 335.3515625000001 547.65625 342.3828125V609.765625L415.625 274.609375H397.8515625L244.140625 609.765625V385.15625C242.7734375 375.78125 246.09375 366.2109375 252.734375 359.375L314.453125 284.5703125V274.6093749999999H139.0625V284.5703125L200.78125 359.375C207.421875 366.2109375 210.3515625 375.78125 208.7890625 385.15625V644.921875C209.5703125 652.1484375 206.8359375 659.1796875 201.3671875 664.0625L146.484375 730.2734375V740.234375H316.9921875L448.6328125000001 451.171875L564.453125 740.0390625H726.953125V730.2734375z" />
    <glyph glyph-name="minus"
      unicode="&#xEA2C;"
      horiz-adv-x="875" d="M812.5 593.75H62.5C27.98828125 593.75 0 565.76171875 0 531.25V468.75C0 434.23828125 27.98828125 406.25 62.5 406.25H812.5C847.01171875 406.25 875 434.23828125 875 468.75V531.25C875 565.76171875 847.01171875 593.75 812.5 593.75z" />
    <glyph glyph-name="pinterest-p"
      unicode="&#xEA2D;"
      horiz-adv-x="750" d="M398.4375 987.3046875C198.046875 987.3046875 0 853.7109375 0 637.5C0 500 77.34375 421.875 124.21875 421.875C143.5546875 421.875 154.6875 475.78125 154.6875 491.0156249999999C154.6875 509.1796875 108.3984375 547.8515625 108.3984375 623.4375C108.3984375 780.46875 227.9296875 891.796875 382.6171875 891.796875C515.625 891.796875 614.0625 816.2109375 614.0625 677.34375C614.0625 573.6328125 572.4609374999999 379.1015625 437.6953125 379.1015625C389.0625 379.1015625 347.4609375 414.2578125 347.4609375 464.6484375000001C347.4609375 538.4765625000001 399.0234375 609.9609375 399.0234375 686.1328125C399.0234375 815.4296875000001 215.625 791.9921875000001 215.625 635.7421875C215.625 602.9296875 219.7265625 566.6015625 234.375 536.71875C207.421875 420.7031250000001 152.34375 247.8515625 152.34375 128.3203125000001C152.34375 91.4062500000001 157.6171875 55.0781250000001 161.1328125 18.1640625000001C167.7734375 10.7421875000001 164.453125 11.5234375000002 174.609375 15.2343750000001C273.046875 150.0000000000001 269.53125 176.3671875000001 314.0625 352.7343750000001C338.0859375 307.0312500000003 400.1953125 282.4218750000001 449.4140625 282.4218750000001C656.8359374999999 282.4218750000001 750 484.5703125000001 750 666.7968750000002C750 860.7421875 582.421875 987.3046875 398.4375 987.3046875z" />
    <glyph glyph-name="pinterest"
      unicode="&#xEA2E;"
      horiz-adv-x="968.75" d="M968.75 500C968.75 232.421875 751.953125 15.625 484.375 15.625C434.375 15.625 386.328125 23.2421875 341.015625 37.3046875C360.7421875 69.53125 390.234375 122.265625 401.171875 164.2578125C407.03125 186.9140625000001 431.25 279.4921875 431.25 279.4921875C447.0703125 249.4140625000001 493.1640625 223.828125 542.1875 223.828125C688.2812500000001 223.828125 793.5546875 358.2031250000001 793.5546875 525.1953125C793.5546875 685.15625 662.890625 804.8828125 494.921875 804.8828125C285.9375 804.8828125 174.8046875 664.6484375 174.8046875 511.7187500000001C174.8046875 440.625 212.6953125 352.1484375 273.046875 324.0234375000001C282.2265625 319.7265625000001 287.109375 321.6796875000001 289.2578125000001 330.4687500000001C290.8203125000001 337.109375 299.0234375000001 370.1171875000001 302.7343750000001 385.3515625000001C303.9062500000001 390.2343750000001 303.3203125000001 394.5312500000001 299.4140625000001 399.2187500000003C279.6875000000001 423.6328125000003 263.6718750000001 468.1640625000002 263.6718750000001 509.7656250000002C263.6718750000001 616.6015625000002 344.5312500000001 719.9218750000002 482.4218750000001 719.9218750000002C601.3671875000001 719.9218750000002 684.765625 638.8671875000002 684.765625 522.8515625000002C684.765625 391.7968750000001 618.5546875000001 300.9765625000001 532.421875 300.9765625000001C484.9609375 300.9765625000001 449.2187500000001 340.2343750000003 460.7421875000001 388.4765625000003C474.4140625000001 446.0937500000003 500.7812500000001 508.2031250000002 500.7812500000001 549.8046875000002C500.7812500000001 586.9140625000002 480.8593750000001 617.9687500000002 439.4531250000001 617.9687500000002C390.8203125000001 617.9687500000002 351.7578125000001 567.7734375000002 351.7578125000001 500.3906250000002C351.7578125000001 457.4218750000002 366.2109375000001 428.5156250000003 366.2109375000001 428.5156250000003S318.3593750000001 225.7812500000001 309.5703125000001 187.8906250000002C299.8046875000001 146.0937500000002 303.7109375000001 87.1093750000001 307.8125000000001 48.8281250000002C127.734375 119.3359375 0 294.7265625 0 500C0 767.578125 216.796875 984.375 484.375 984.375S968.75 767.578125 968.75 500z" />
    <glyph glyph-name="plus"
      unicode="&#xEA2F;"
      horiz-adv-x="875" d="M812.5 593.75H531.25V875C531.25 909.51171875 503.2617187500001 937.5 468.75 937.5H406.25C371.73828125 937.5 343.75 909.51171875 343.75 875V593.75H62.5C27.98828125 593.75 0 565.76171875 0 531.25V468.75C0 434.23828125 27.98828125 406.25 62.5 406.25H343.75V125C343.75 90.48828125 371.73828125 62.5 406.25 62.5H468.75C503.2617187500001 62.5 531.25 90.48828125 531.25 125V406.25H812.5C847.01171875 406.25 875 434.23828125 875 468.75V531.25C875 565.76171875 847.01171875 593.75 812.5 593.75z" />
    <glyph glyph-name="product-hunt"
      unicode="&#xEA30;"
      horiz-adv-x="1000" d="M637.3046875 572.65625C637.3046875 532.6171875 604.6875 500 564.6484375 500H427.34375V645.3125H564.6484375C604.6875 645.3125 637.3046875 612.6953125 637.3046875 572.65625zM984.375 500C984.375 232.421875 767.578125 15.625 500 15.625S15.625 232.421875 15.625 500S232.421875 984.375 500 984.375S984.375 767.578125 984.375 500zM734.1796875 572.65625C734.1796875 666.2109375 658.203125 742.1875 564.6484374999999 742.1875H330.46875V257.8125H427.34375V403.125H564.6484374999999C658.2031249999999 403.125 734.1796875 479.1015624999999 734.1796875 572.65625z" />
    <glyph glyph-name="reddit-alien"
      unicode="&#xEA31;"
      horiz-adv-x="1000" d="M859.9609375 602.5390625C830.6640625 602.5390625 804.8828125 590.4296875 785.9375000000001 571.484375C716.2109375000001 619.7265625 622.265625 650.78125 518.1640625000001 654.1015625L572.265625 897.8515625L744.53125 859.1796875C744.53125 816.9921875 778.90625 782.6171875 821.09375 782.6171875C864.0625 782.6171875 898.6328124999999 817.96875 898.6328124999999 860.15625S864.2578124999999 937.6953125 821.09375 937.6953125C791.015625 937.6953125 765.0390625 919.53125 752.1484374999999 894.7265625L561.9140624999999 936.9140625C552.3437499999999 939.453125 542.9687499999999 932.6171875 540.4296874999999 923.046875L481.0546875 654.296875C377.734375 650 284.765625 618.9453125 214.84375 570.703125C195.8984375 590.4296875 169.140625 602.5390625 139.84375 602.5390625C31.25 602.5390625 -4.296875 456.8359375 95.1171875 407.03125C91.6015625 391.6015625 90.0390625 375.1953124999999 90.0390625 358.7890625C90.0390625 195.1171875 274.4140625 62.5 500.7812499999999 62.5C728.1249999999999 62.5 912.5 195.1171875 912.5 358.7890625C912.5 375.1953124999999 910.7421875 392.3828125 906.4453124999998 407.8125C1003.90625 457.8125000000001 967.9687499999998 602.5390625 859.9609374999999 602.5390625zM252.734375 396.6796875C252.734375 439.6484375 287.109375 474.21875 330.2734375000001 474.21875C372.4609375000001 474.21875 406.8359375 439.84375 406.8359375 396.6796875C406.8359375 354.4921875 372.4609375000001 320.1171875000001 330.2734375000001 320.1171875000001C287.3046875000001 319.921875 252.7343750000001 354.4921875000001 252.7343750000001 396.6796875zM671.2890625000001 214.0625C600.1953125000001 142.9687500000001 399.6093750000001 142.9687500000001 328.5156250000001 214.0625C320.7031250000001 220.8984375 320.7031250000001 233.0078125 328.5156250000001 240.8203125C335.3515625000001 247.65625 347.4609375000001 247.65625 354.2968750000001 240.8203125C408.5937500000001 185.15625 588.6718750000001 184.1796875 645.3125000000001 240.8203125C652.1484375000001 247.65625 664.2578125 247.65625 671.09375 240.8203125C679.1015625000001 233.0078125 679.1015625000001 220.8984375 671.2890625000001 214.0625zM669.7265625000001 319.921875C627.5390625 319.921875 593.1640625000001 354.2968750000001 593.1640625000001 396.484375C593.1640625000001 439.453125 627.5390625000001 474.0234375 669.7265625000001 474.0234375C712.6953125000001 474.0234375 747.265625 439.6484374999999 747.265625 396.484375C747.0703125 354.4921875 712.6953125000001 319.921875 669.7265625000001 319.921875z" />
    <glyph glyph-name="reddit"
      unicode="&#xEA32;"
      horiz-adv-x="1000" d="M393.5546875 403.3203125C366.6015625 403.3203125 344.921875 425 344.921875 451.3671875C344.921875 478.3203125000001 366.6015625 500.0000000000001 393.5546875 500.0000000000001C420.1171875 500.0000000000001 441.6015625 478.3203125000001 441.6015625 451.3671875C441.6015625 424.8046875 419.921875 403.3203125 393.5546875 403.3203125zM984.375 500C984.375 232.421875 767.578125 15.625 500 15.625S15.625 232.421875 15.625 500S232.421875 984.375 500 984.375S984.375 767.578125 984.375 500zM725.9765625 580.46875C707.6171875 580.46875 691.40625 572.8515625 679.4921875 560.9375C635.7421875 591.2109375 576.7578124999999 610.7421875 511.3281249999999 612.890625L545.3124999999999 765.8203125L653.5156249999998 741.40625C653.5156249999998 714.84375 675.1953124999999 693.359375 701.5624999999999 693.359375C728.5156249999999 693.359375 750.1953124999998 715.4296875 750.1953124999998 741.9921875S728.5156249999998 790.625 701.5624999999999 790.625C682.6171874999999 790.625 666.4062499999999 779.296875 658.3984374999998 763.671875L538.8671874999999 790.234375C533.0078124999999 791.796875 526.9531249999998 787.5 525.3906249999999 781.640625L488.0859374999999 612.8906249999999C423.2421874999999 610.1562499999999 364.8437499999999 590.8203124999999 321.0937499999999 560.5468749999999C309.1796874999999 573.0468749999999 292.3828125 580.4687499999999 274.0234374999999 580.4687499999999C205.8593749999999 580.4687499999999 183.5937499999999 488.8671874999999 245.8984374999999 457.8124999999999C243.7499999999999 448.0468749999999 242.5781249999999 437.8906249999999 242.5781249999999 427.5390624999999C242.5781249999999 324.8046874999998 358.2031249999999 241.6015624999999 500.3906249999999 241.6015624999999C643.1640624999999 241.6015624999999 758.7890624999999 324.8046874999999 758.7890624999999 427.5390624999999C758.7890624999999 437.8906249999999 757.6171874999999 448.6328124999999 755.0781249999999 458.3984374999999C816.2109375 489.6484374999999 793.75 580.4687499999999 725.9765625 580.4687499999999zM591.40625 353.515625C555.859375 317.96875 442.7734375000001 318.5546875 408.5937500000001 353.515625C404.2968750000001 357.8125 396.6796875000001 357.8125 392.3828125 353.515625C387.5 348.6328125 387.5 341.015625 392.3828125 336.71875C436.9140625000001 292.1874999999999 562.890625 292.1874999999999 607.6171875 336.71875C612.5 341.0156249999999 612.5 348.6328125 607.6171875 353.515625C603.3203125000001 357.8125 595.703125 357.8125 591.40625 353.515625zM606.4453125 500C579.8828125 500 558.3984375 478.3203125 558.3984375 451.3671875C558.3984375 424.8046875 580.078125 403.3203125 606.4453125 403.3203125C633.3984375 403.3203125 655.078125 425 655.078125 451.3671875C655.078125 478.3203125000001 633.59375 500.0000000000001 606.4453125 500.0000000000001z" />
    <glyph glyph-name="rss"
      unicode="&#xEA33;"
      horiz-adv-x="875" d="M250.158203125 187.580078125C250.158203125 118.5 194.158203125 62.5 125.078125 62.5S0 118.5 0 187.580078125S56 312.66015625 125.080078125 312.66015625S250.1582031250001 256.658203125 250.1582031250001 187.580078125zM593.244140625 95.294921875C576.927734375 397.2480468749999 335.0703125 639.41015625 32.794921875 655.744140625C14.953125 656.708984375 0 642.373046875 0 624.505859375V530.62109375C0 514.185546875 12.67578125 500.40234375 29.076171875 499.3359374999999C247.498046875 485.109375 422.578125 310.4648437499999 436.833984375 91.578125C437.90234375 75.177734375 451.685546875 62.501953125 468.119140625 62.501953125H562.00390625C579.873046875 62.5 594.2089843749999 77.4531249999999 593.244140625 95.294921875zM874.98046875 94.732421875C858.5859375 551.412109375 491.142578125 921.005859375 32.232421875 937.48046875C14.595703125 938.11328125 0 923.865234375 0 906.21875V812.3359375C0 795.490234375 13.349609375 781.779296875 30.181640625 781.087890625C403.578125 765.77734375 703.28125 466.017578125 718.5898437499999 92.6796875C719.2792968749999 75.84765625 732.9902343749999 62.498046875 749.837890625 62.498046875H843.7207031249999C861.3652343749999 62.5 875.6132812499999 77.095703125 874.9804687499999 94.7324218750001z" />
    <glyph glyph-name="skype"
      unicode="&#xEA34;"
      horiz-adv-x="875" d="M829.4921875 414.453125C835.1562499999999 441.796875 838.671875 470.8984374999999 838.671875 500C838.671875 721.6796875 659.1796875 900.9765625 437.6953125 900.9765625C408.59375 900.9765625 379.6875 897.65625 352.1484374999999 891.796875C315.0390625 920.5078125 268.9453125 937.5 218.75 937.5C98.046875 937.5 0 839.453125 0 718.75C0 668.5546875 16.9921875 622.4609375 45.5078125 585.546875C39.84375 558.203125 36.328125 529.1015625 36.328125 500C36.328125 278.3203125 215.8203125 99.0234375 437.3046875 99.0234375C466.40625 99.0234375 495.3125 102.34375 522.8515625 108.203125C559.9609375 79.6874999999999 606.0546875 62.6953124999999 656.0546875 62.6953124999999C776.7578125 62.6953124999999 874.8046875 160.7421874999999 874.8046875 281.4453124999999C875 331.4453125 858.0078124999999 377.5390624999999 829.4921875 414.4531249999999zM449.4140625 235.7421875C321.2890625 235.7421875 214.0625 292.7734375 214.0625 362.6953125C214.0625 393.9453125 231.640625 422.4609375 271.6796875 422.4609375C332.6171875 422.4609375 338.28125 334.7656250000001 443.75 334.7656250000001C493.9453124999999 334.7656250000001 526.3671875 357.03125 526.3671875 386.1328125000001C526.3671875 422.6562500000001 495.1171875 428.3203125000001 444.3359375 440.8203125000001C322.265625 470.8984375 214.2578125 483.7890625000001 214.2578125 611.1328125C214.2578125 726.7578125 328.7109375 769.53125 427.34375 769.53125C534.9609375000001 769.53125 643.75 726.7578125 643.75 661.328125C643.75 628.3203125 621.4843750000001 599.21875 584.5703125 599.21875C529.296875 599.21875 527.5390625 664.6484375 438.0859375 664.6484375C387.8906250000001 664.6484375 356.0546875 650.9765625 356.0546875 620.703125C356.0546875 582.03125 396.6796875000001 578.125 491.015625 556.25C571.875 538.0859375 668.1640625 503.90625 668.1640625 404.6875000000001C668.1640625 289.2578125 556.640625 235.7421875000001 449.4140625000001 235.7421875000001z" />
    </font>
</defs>
</svg>
